<?xml version="1.0" standalone="no"?>
<!DOCTYPE svg PUBLIC "-//W3C//DTD SVG 1.1//EN" "http://www.w3.org/Graphics/SVG/1.1/DTD/svg11.dtd" >
<svg xmlns="http://www.w3.org/2000/svg">
<metadata>Generated by IcoMoon</metadata>
<defs>
<font id="icomoon" horiz-adv-x="1024">
<font-face units-per-em="1024" ascent="960" descent="-64" />
<missing-glyph horiz-adv-x="1024" />
<glyph unicode="&#x20;" horiz-adv-x="512" d="" />
<glyph unicode="&#xe900;" glyph-name="right-quotation-mark" d="M354.468 881.226h-236.312c-32.825 0-60.72-11.488-83.699-34.459-22.968-22.975-34.457-50.87-34.457-83.697v-236.303c0-32.825 11.482-60.716 34.457-83.686 22.977-22.968 50.881-34.461 83.699-34.461h137.846c16.405 0 30.357-5.746 41.845-17.23 11.488-11.478 17.23-25.434 17.23-41.852v-19.681c0-43.49-15.388-80.606-46.154-111.381-30.769-30.76-67.894-46.145-111.388-46.145h-39.38c-10.674 0-19.901-3.908-27.699-11.697-7.792-7.79-11.691-17.024-11.691-27.691v-78.779c0-10.65 3.899-19.901 11.691-27.693 7.805-7.788 17.024-11.697 27.699-11.697h39.382c42.671 0 83.389 8.32 122.161 24.93 38.77 16.612 72.306 39.080 100.615 67.389 28.303 28.311 50.767 61.841 67.381 100.613 16.612 38.77 24.921 79.485 24.921 122.15v433.225c0 32.827-11.488 60.72-34.459 83.691s-50.872 34.457-83.689 34.457zM989.531 846.767c-22.968 22.97-50.866 34.459-83.691 34.459h-236.303c-32.825 0-60.72-11.488-83.691-34.459-22.968-22.977-34.452-50.87-34.452-83.697v-236.303c0-32.825 11.484-60.716 34.452-83.686 22.97-22.968 50.868-34.461 83.691-34.461h137.846c16.405 0 30.368-5.746 41.854-17.23 11.475-11.484 17.23-25.434 17.23-41.852v-19.681c0-43.49-15.388-80.606-46.161-111.381-30.766-30.76-67.883-46.145-111.381-46.145h-39.388c-10.665 0-19.901-3.908-27.691-11.697-7.796-7.79-11.7-17.024-11.7-27.691v-78.779c0-10.65 3.903-19.901 11.7-27.693 7.788-7.788 17.024-11.697 27.691-11.697h39.388c42.664 0 83.38 8.32 122.156 24.93 38.763 16.612 72.295 39.080 100.606 67.389 28.309 28.311 50.786 61.85 67.389 100.613 16.61 38.761 24.923 79.485 24.923 122.15v433.225c-0.006 32.827-11.484 60.72-34.47 83.689z" />
<glyph unicode="&#xe901;" glyph-name="down-arrow" d="M1011.453 734.482c-16.73 16.816-43.875 16.816-60.605 0l-438.824-481.508-438.869 481.508c-16.73 16.816-43.876 16.816-60.607 0s-16.73-44.089 0-60.903l466.996-512.403c8.92-8.963 20.785-12.803 32.437-12.208 11.692-0.596 23.517 3.244 32.437 12.208l467.038 512.448c16.729 16.812 16.729 44.042-0.002 60.858z" />
<glyph unicode="&#xe902;" glyph-name="checked" d="M512 960c-282.306 0-512-229.694-512-512s229.694-512 512-512 512 229.694 512 512-229.694 512-512 512zM798.155 582.737l-327.218-324.652c-19.248-19.248-50.045-20.531-70.576-1.283l-173.233 157.835c-20.531 19.248-21.815 51.328-3.85 71.86 19.248 20.531 51.328 21.815 71.86 2.566l137.303-125.754 292.571 292.571c20.531 20.531 52.612 20.531 73.143 0s20.531-52.612 0-73.143z" />
<glyph unicode="&#xe903;" glyph-name="pin" d="M512 960c-208.583 0-378.27-169.688-378.27-378.27 0-68.667 30.796-142.519 32.086-145.634 9.946-23.609 29.572-60.278 43.724-81.773l259.36-392.978c10.614-16.11 26.323-25.344 43.101-25.344s32.487 9.234 43.101 25.322l259.382 393.001c14.174 21.495 33.777 58.165 43.724 81.773 1.291 3.093 32.064 76.945 32.064 145.634 0 208.583-169.688 378.27-378.27 378.27zM817.175 453.363c-8.878-21.161-27.146-55.272-39.852-74.542l-259.382-393.001c-5.118-7.766-6.742-7.766-11.86 0l-259.382 393.001c-12.705 19.27-30.974 53.403-39.852 74.564-0.378 0.912-28.615 68.89-28.615 128.345 0 184.040 149.728 333.768 333.768 333.768s333.768-149.728 333.768-333.768c0-59.544-28.304-127.7-28.593-128.367zM512 781.968c-110.433 0-200.261-89.85-200.261-200.261s89.828-200.261 200.261-200.261c110.433 0 200.261 89.85 200.261 200.261s-89.828 200.261-200.261 200.261zM512 425.949c-85.867 0-155.758 69.869-155.758 155.758s69.891 155.758 155.758 155.758 155.758-69.869 155.758-155.758-69.891-155.758-155.758-155.758z" />
<glyph unicode="&#xe904;" glyph-name="letter" d="M1022.456-56.248c0.924 1.828 1.488 3.978 1.544 6.254v585.994c-0.158 4.309-2.092 8.136-5.088 10.794l-0.016 0.014-146.84 120.88v155.72c0 0.002 0 0.005 0 0.008 0 7.728-6.264 13.992-13.992 13.992-0.003 0-0.006 0-0.008 0h-192.128l-145.032 119.392c-2.395 1.994-5.504 3.204-8.896 3.204s-6.501-1.21-8.919-3.222l0.023 0.018-145.032-119.392h-192.12c-0.002 0-0.005 0-0.008 0-7.728 0-13.992-6.264-13.992-13.992 0-0.003 0-0.006 0-0.008v0-155.72l-146.848-120.912c-3.007-2.662-4.941-6.478-5.103-10.748l-0.001-0.028v-585.944c0.071-7.715 6.29-13.953 13.99-14.056h996.010c5.427 0.027 10.121 3.14 12.419 7.672l0.037 0.080zM28 510.32l343.056-220.64-343.056-308.248zM395.472 274l108.952-70.064c2.153-1.352 4.771-2.154 7.576-2.154s5.423 0.802 7.636 2.189l-0.060-0.035 108.952 70.072 344.944-310.008h-922.944zM652.944 289.704l343.056 220.616v-528.888zM986.28 537.36l-114.224-73.456v167.52zM512 927.888l109.888-90.48h-219.768zM179.952 809.408h664.104v-363.512l-332.056-213.536-332.048 213.536v363.512zM151.952 463.904l-114.232 73.456 114.232 94.064zM660.912 736.248h133.144c7.732 0 14 6.268 14 14s-6.268 14-14 14v0h-133.144c-7.732 0-14-6.268-14-14s6.268-14 14-14v0zM606.752 667.896h187.304c7.732 0 14 6.268 14 14s-6.268 14-14 14v0h-187.304c-7.732 0-14-6.268-14-14s6.268-14 14-14v0zM297.752 599.536h496.304c7.732 0 14 6.268 14 14s-6.268 14-14 14v0h-496.304c-7.732 0-14-6.268-14-14s6.268-14 14-14v0zM229.952 531.2h564.104c7.732 0 14 6.268 14 14s-6.268 14-14 14v0h-564.104c-7.732 0-14-6.268-14-14s6.268-14 14-14v0zM229.952 462.832h564.104c7.732 0 14 6.268 14 14s-6.268 14-14 14v0h-564.104c-7.732 0-14-6.268-14-14s6.268-14 14-14v0zM675 422.48h-326c-7.732 0-14-6.268-14-14s6.268-14 14-14v0h326c7.732 0 14 6.268 14 14s-6.268 14-14 14v0zM566.312 354.128h-108.624c-7.732 0-14-6.268-14-14s6.268-14 14-14v0h108.624c7.732 0 14 6.268 14 14s-6.268 14-14 14v0z" />
<glyph unicode="&#xe905;" glyph-name="plus" d="M984 488h-432v432c0 22.092-17.908 40-40 40s-40-17.908-40-40v-432h-432c-22.092 0-40-17.908-40-40s17.908-40 40-40h432v-432c0-22.092 17.908-40 40-40s40 17.908 40 40v432h432c22.092 0 40 17.908 40 40s-17.908 40-40 40z" />
<glyph unicode="&#xe906;" glyph-name="phone-call" d="M943.158 285.776c-63.166 0-125.035 9.863-183.726 29.265-28.618 9.863-61.064 2.264-79.925-16.924l-116.251-87.795c-133.337 71.141-218.706 156.457-288.983 288.93l85.422 113.502c21.504 21.557 29.212 52.979 19.996 82.459-19.458 58.962-29.373 120.887-29.373 183.944 0 44.572-36.27 80.842-80.842 80.842h-188.633c-44.572 0-80.842-36.27-80.842-80.842 0-520.030 423.128-943.158 943.158-943.158 44.572 0 80.842 36.27 80.842 80.842v188.092c0 44.572-36.27 80.842-80.842 80.842zM970.106 16.842c0-14.875-12.126-26.948-26.948-26.948-490.336 0-889.264 398.928-889.264 889.264 0 14.875 12.126 26.948 26.948 26.948h188.633c14.822 0 26.948-12.073 26.948-26.948 0-68.824 10.78-136.409 31.905-200.489 3.125-10.077 0.594-20.481-9.269-30.72l-98.089-129.886c-6.197-8.246-7.167-19.293-2.478-28.456 79.925-156.995 176.991-254.115 335.119-335.119 9.107-4.742 20.264-3.772 28.509 2.478l132.69 100.568c7.223 7.114 17.838 9.592 27.433 6.414 64.459-21.289 132.043-32.067 200.921-32.067 14.822 0 26.948-12.073 26.948-26.948v-188.092z" />
<glyph unicode="&#xe907;" glyph-name="envelope" d="M78.030 584.187c-17.486-16.202-27.453-38.942-27.519-62.78v-489.861c-0.264-52.412 41.939-95.15 94.349-95.545h734.28c52.41 0.395 94.613 43.134 94.349 95.545v489.861c-0.068 23.854-10.049 46.608-27.553 62.814l-387.598 357.704c-26.171 24.098-66.451 24.098-92.622 0l-387.65-357.704zM403.532 272.238l-309.538-273.116c-6.049 9.737-9.268 20.963-9.298 32.424v488.681zM144.86-29.815c-8.773 0.040-17.426 2.055-25.314 5.897l311.453 274.79 49.362-38.389c18.486-14.752 44.707-14.794 63.24-0.102l49.482 38.491 311.369-274.79c-7.888-3.842-16.541-5.857-25.314-5.897zM930.006-0.878l-309.54 273.116 318.838 247.99v-488.683c-0.030-11.461-3.249-22.688-9.298-32.422zM488.942 916.886c13.029 12.032 33.119 12.032 46.149 0l387.632-357.756c1.582-1.614 3.061-3.327 4.427-5.128l-404.74-314.718c-6.143-4.869-14.842-4.827-20.937 0.102l-404.624 314.702c1.354 1.763 2.82 3.437 4.393 5.007z" />
<glyph unicode="&#xe908;" glyph-name="clock" d="M512 960c-282.312 0-512-229.688-512-512s229.688-512 512-512 512 229.688 512 512-229.688 512-512 512zM512 0c-247.032 0-448 200.968-448 448s200.968 448 448 448 448-200.968 448-448-200.968-448-448-448zM544 767.999h-64v-333.249l201.375-201.375 45.25 45.25-182.625 182.625z" />
<glyph unicode="&#xe909;" d="M483.408 953.474c-8.84 8.54-22.929 8.293-31.469-0.547-8.329-8.625-8.329-22.297 0-30.92l473.85-473.894-473.894-473.85c-8.84-8.54-9.086-22.627-0.547-31.469 8.54-8.84 22.627-9.084 31.469-0.547 0.186 0.179 0.367 0.361 0.547 0.547l489.607 489.607c8.688 8.69 8.688 22.777 0 31.469l-489.563 489.605z" />
<glyph unicode="&#xe90a;" d="M572.428 463.867l-489.607 489.607c-8.84 8.54-22.929 8.293-31.469-0.547-8.329-8.625-8.329-22.297 0-30.922l473.85-473.894-473.894-473.848c-8.84-8.54-9.084-22.627-0.547-31.469 8.54-8.84 22.627-9.084 31.469-0.547 0.186 0.179 0.367 0.361 0.547 0.547l489.607 489.607c8.698 8.677 8.719 22.765 0.044 31.467z" />
<glyph unicode="&#xe90b;" d="M467.652-63.75c-12.291-0.023-22.272 9.925-22.295 22.216-0.010 5.925 2.343 11.611 6.539 15.796l473.894 473.85-473.894 473.848c-8.54 8.84-8.293 22.929 0.547 31.469 8.625 8.329 22.297 8.329 30.92 0l489.607-489.607c8.688-8.69 8.688-22.777 0-31.469l-489.605-489.605c-4.171-4.162-9.821-6.499-15.713-6.499z" />
<glyph unicode="&#xe90c;" d="M67.065-63.75c-12.291-0.023-22.272 9.925-22.295 22.216-0.010 5.925 2.343 11.611 6.539 15.796l473.894 473.85-473.894 473.848c-8.702 8.702-8.702 22.81 0 31.513s22.81 8.702 31.513 0l489.607-489.607c8.688-8.69 8.688-22.777 0-31.469l-489.607-489.605c-4.175-4.187-9.844-6.543-15.756-6.543z" />
<glyph unicode="&#xe90d;" glyph-name="left" d="M1002.666 469.334h-929.832l283.584 283.584c8.334 8.334 8.334 21.834 0 30.166-8.334 8.334-21.834 8.334-30.166 0l-320-320c-8.334-8.334-8.334-21.834 0-30.166l320-320c4.166-4.166 9.626-6.25 15.084-6.25s10.916 2.084 15.084 6.25c8.334 8.334 8.334 21.834 0 30.166l-283.586 283.582h929.834c11.792 0 21.334 9.542 21.334 21.334s-9.544 21.334-21.336 21.334z" />
<glyph unicode="&#xe90e;" glyph-name="right-arrow-angle" d="M798.813 480.478l-512.425 466.975c-16.815 16.73-44.086 16.73-60.901 0-16.815-16.729-16.815-43.872 0-60.602l481.528-438.851-481.485-438.85c-16.815-16.73-16.815-43.874 0-60.602s44.086-16.729 60.9 0l512.426 466.975c8.962 8.918 12.805 20.742 12.206 32.434 0.557 11.737-3.284 23.559-12.249 32.521z" />
<glyph unicode="&#xe90f;" glyph-name="user" d="M504.702 466.735c67.765 0 126.437 24.305 174.39 72.258 47.937 47.945 72.25 106.609 72.25 174.382 0 67.75-24.305 126.422-72.258 174.382-47.953 47.937-106.625 72.242-174.382 72.242-67.773 0-126.437-24.305-174.382-72.25s-72.258-106.617-72.258-174.375c0-67.773 24.312-126.445 72.258-174.39 47.961-47.937 106.633-72.25 174.382-72.25zM372.757 845.321c36.789 36.789 79.945 54.672 131.945 54.672 51.992 0 95.156-17.883 131.953-54.672 36.789-36.797 54.68-79.961 54.68-131.945 0-52-17.891-95.156-54.68-131.953-36.797-36.797-79.961-54.68-131.953-54.68-51.984 0-95.14 17.891-131.945 54.68-36.797 36.789-54.687 79.953-54.687 131.953 0 51.984 17.891 95.148 54.687 131.945zM936.256 172.595c-1.383 19.953-4.18 41.719-8.297 64.703-4.156 23.156-9.508 45.047-15.914 65.055-6.625 20.68-15.617 41.101-26.75 60.672-11.539 20.312-25.102 38-40.32 52.555-15.914 15.227-35.398 27.469-57.93 36.398-22.453 8.883-47.336 13.383-73.953 13.383-10.453 0-20.562-4.289-40.086-17-12.016-7.836-26.070-16.898-41.758-26.922-13.414-8.547-31.586-16.555-54.031-23.805-21.898-7.086-44.133-10.68-66.086-10.68-21.937 0-44.172 3.594-66.086 10.68-22.422 7.242-40.601 15.25-53.992 23.797-15.539 9.93-29.602 18.992-41.797 26.937-19.508 12.711-29.617 17-40.070 17-26.625 0-51.5-4.508-73.945-13.398-22.516-8.914-42.008-21.156-57.937-36.398-15.219-14.562-28.781-32.242-40.312-52.547-11.117-19.57-20.117-39.984-26.742-60.68-6.398-20.008-11.75-41.891-15.906-65.047-4.125-22.953-6.914-44.726-8.297-64.726-1.359-19.555-2.047-39.906-2.047-60.469 0-53.453 16.992-96.726 50.5-128.64 33.094-31.492 76.875-47.461 130.133-47.461h493.062c53.242 0 97.023 15.969 130.125 47.461 33.516 31.891 50.508 75.18 50.508 128.648-0.008 20.633-0.703 40.984-2.070 60.484zM846.444 26.939c-21.867-20.812-50.898-30.93-88.758-30.93h-493.054c-37.867 0-66.898 10.117-88.758 30.922-21.445 20.414-31.867 48.281-31.867 85.172 0 19.187 0.633 38.133 1.898 56.32 1.234 17.844 3.758 37.445 7.5 58.273 3.695 20.57 8.398 39.875 13.992 57.351 5.367 16.758 12.687 33.351 21.766 49.336 8.664 15.234 18.633 28.305 29.633 38.836 10.289 9.852 23.258 17.914 38.539 23.961 14.133 5.594 30.016 8.656 47.258 9.117 2.102-1.117 5.844-3.25 11.906-7.203 12.336-8.039 26.555-17.211 42.273-27.25 17.719-11.297 40.547-21.5 67.82-30.305 27.883-9.016 56.32-13.594 84.547-13.594s56.672 4.578 84.539 13.586c27.297 8.82 50.117 19.016 67.859 30.328 16.086 10.281 29.906 19.187 42.242 27.234 6.062 3.945 9.805 6.086 11.906 7.203 17.25-0.461 33.133-3.523 47.273-9.117 15.273-6.047 28.242-14.117 38.531-23.961 11-10.523 20.969-23.594 29.633-38.844 9.086-15.977 16.414-32.578 21.773-49.32 5.602-17.5 10.312-36.797 14-57.351 3.734-20.867 6.266-40.476 7.5-58.289v-0.016c1.273-18.117 1.914-37.055 1.922-56.297-0.008-36.898-10.43-64.758-31.875-85.164z" />
<glyph unicode="&#xe910;" glyph-name="right" d="M1017.75 463.084l-320 320c-8.334 8.334-21.834 8.334-30.166 0-8.334-8.334-8.334-21.834 0-30.166l283.584-283.584h-929.834c-11.792 0-21.334-9.542-21.334-21.334s9.542-21.334 21.334-21.334h929.834l-283.584-283.582c-8.334-8.334-8.334-21.834 0-30.166 4.166-4.166 9.626-6.25 15.084-6.25s10.916 2.084 15.084 6.25l320 320c8.332 8.332 8.332 21.832-0.002 30.166z" />
<glyph unicode="&#xe911;" glyph-name="left-arrow" d="M331.295 447.762l444.985 444.985c15.384 15.386 15.384 40.33 0 55.716-15.388 15.381-40.33 15.381-55.716 0l-472.843-472.843c-15.381-15.386-15.381-40.33 0-55.716l472.843-472.843c15.654-15.118 40.598-14.684 55.716 0.97 14.746 15.27 14.746 39.478 0 54.746l-444.985 444.985z" />
<glyph unicode="&#xe912;" d="M98.244 447.874l473.907 473.863c8.84 8.54 9.086 22.627 0.547 31.47-8.54 8.84-22.627 9.086-31.47 0.547-0.186-0.179-0.367-0.361-0.547-0.547l-489.618-489.62c-8.688-8.69-8.688-22.778 0-31.47l489.618-489.618c8.84-8.54 22.93-8.294 31.47 0.547 8.331 8.625 8.331 22.298 0 30.923l-473.907 473.905z" />
<glyph unicode="&#xe913;" d="M972.749 953.25c-8.69 8.688-22.778 8.688-31.47 0l-489.618-489.62c-8.688-8.69-8.688-22.778 0-31.47l489.618-489.618c8.84-8.54 22.93-8.296 31.47 0.545 8.331 8.625 8.331 22.3 0 30.923l-473.907 473.863 473.907 473.863c8.703 8.68 8.719 22.771 0.040 31.474-0.013 0.013-0.027 0.027-0.040 0.040z" />
<glyph unicode="&#xe914;" d="M556.394-64c-5.907-0.010-11.576 2.326-15.757 6.499l-489.62 489.618c-8.688 8.69-8.688 22.778 0 31.47l489.62 489.62c8.54 8.84 22.627 9.086 31.47 0.547 8.84-8.54 9.086-22.627 0.547-31.47-0.179-0.186-0.361-0.367-0.547-0.547l-473.863-473.863 473.907-473.863c8.703-8.68 8.719-22.771 0.040-31.474-4.185-4.194-9.871-6.547-15.796-6.537z" />
<glyph unicode="&#xe915;" d="M956.992-64c-5.907-0.010-11.576 2.326-15.757 6.499l-489.62 489.618c-8.688 8.69-8.688 22.778 0 31.47l489.62 489.62c8.54 8.84 22.627 9.084 31.47 0.547 8.84-8.54 9.084-22.627 0.547-31.47-0.179-0.186-0.361-0.367-0.547-0.547l-473.863-473.863 473.907-473.863c8.703-8.68 8.719-22.771 0.040-31.474-4.185-4.194-9.871-6.547-15.796-6.537z" />
<glyph unicode="&#xe916;" glyph-name="phone-call-1" d="M985.114 158.88l-200.646 200.644c-23.952 23.95-62.916 23.95-86.87 0l-52.176-52.176c-16.348-16.348-21.516-39.69-15.546-60.482l-19.686-19.686c-0.006-0.006-0.010-0.010-0.016-0.016-13.98-13.996-101.046 7.482-206.29 112.726-105.228 105.226-126.712 192.278-112.732 206.284 0 0.004 0.004 0.004 0.004 0.004l19.704 19.702c5.562-1.598 11.302-2.414 17.046-2.414 15.73 0 31.458 5.986 43.436 17.96l52.176 52.176c23.95 23.95 23.95 62.916 0 86.868l-200.646 200.648c-11.6 11.6-27.026 17.988-43.432 17.988-16.41 0-31.83-6.392-43.432-17.988l-52.18-52.18c-16.348-16.348-21.516-39.692-15.546-60.482 0 0-16.688-16.848-17.518-17.912-55.506-61.698-65.92-158.836-29.122-274.974 36.034-113.714 113.714-234.176 218.734-339.19 105.016-105.016 225.478-182.696 339.192-218.734 45.68-14.474 88.414-21.646 127.22-21.646 63.626 0 116.674 19.296 154.7 57.32l10.948 10.948c5.48-1.576 11.204-2.426 17.064-2.426 16.41 0 31.834 6.392 43.432 17.988l52.18 52.18c23.95 23.95 23.95 62.918 0.002 86.87zM179.44 877.686l200.648-200.65-52.148-52.204c0 0-0.010 0.010-0.028 0.028l-200.65 200.646 52.178 52.18zM818.058 36.754c-0.004-0.004-0.006-0.006-0.010-0.010-44.188-44.182-122.292-51.48-219.922-20.54-104.504 33.116-216.13 105.428-314.312 203.612-98.186 98.184-170.498 209.806-203.612 314.312-30.94 97.634-23.642 175.74 20.55 219.934l5.544 5.544 155.714-155.712-14.282-14.282c-0.010-0.010-0.018-0.022-0.030-0.034-59.17-59.244 11.926-192.294 112.756-293.124 75.468-75.468 168.986-134.28 236.102-134.28 22.568 0 42.152 6.65 57.056 21.556 0.006 0.006 0.010 0.010 0.016 0.016l14.266 14.266 155.714-155.712-5.55-5.546zM889.504 63.264l-200.648 200.648 52.176 52.176 200.648-200.644c0 0-52.158-52.198-52.176-52.18zM777.636 713.632c-58.418 58.418-136.084 90.588-218.688 90.586-16.962 0-30.712-13.75-30.712-30.712s13.752-30.712 30.712-30.712c66.2 0.004 128.438-25.78 175.256-72.594 46.812-46.812 72.59-109.050 72.588-175.248 0-16.962 13.75-30.716 30.712-30.716 16.96 0 30.712 13.75 30.712 30.708 0.002 82.608-32.17 160.27-90.58 218.688zM887.79 823.786c-87.846 87.842-204.634 136.218-328.854 136.214-16.962 0-30.712-13.752-30.712-30.712 0-16.962 13.752-30.712 30.712-30.712 107.814 0.004 209.176-41.984 285.418-118.222 76.236-76.236 118.222-177.598 118.22-285.412 0-16.962 13.75-30.712 30.712-30.712 16.96 0 30.712 13.75 30.712 30.708 0.004 124.224-48.372 241.008-136.208 328.848zM667.474 603.48c-29.412 29.412-66.93 44.954-108.512 44.954 0 0-0.010 0-0.012 0-16.962-0.004-30.712-13.752-30.708-30.716 0.004-16.962 13.756-30.712 30.716-30.708 0.004 0 0.006 0 0.010 0 25.288 0 47.186-9.072 65.078-26.962 17.638-17.64 26.962-40.15 26.958-65.088-0.004-16.962 13.75-30.712 30.708-30.716h0.004c16.962 0 30.708 13.75 30.712 30.708 0.002 41.584-15.54 79.112-44.954 108.528z" />
<glyph unicode="&#xe917;" glyph-name="message" d="M1023.218 564.798c-0.002 1.54-0.346 3.866-0.944 5.206-1.574 5.708-5.072 10.922-10.308 14.562l-146.584 101.896v109.232c0 14.48-11.744 26.224-26.224 26.224h-168.638l-143.486 99.756c-8.968 6.242-20.874 6.268-29.87 0.052l-144.412-99.808h-167.9c-14.484 0-26.224-11.744-26.224-26.224v-107.946l-147.296-101.802c-7.246-5.008-11.166-13.014-11.29-21.2-0.008-0.154-0.042-0.3-0.042-0.46l0.782-568.47c0.010-6.954 2.782-13.62 7.704-18.532 4.916-4.902 11.576-7.654 18.52-7.654 0.014 0 0.024 0 0.036 0l970.77 1.334c14.48 0.020 26.208 11.778 26.188 26.26l-0.782 567.574zM865.38 622.584l83.796-58.236-83.796-58.256v116.492zM512.030 868.232l66.62-46.312h-133.624l67.004 46.312zM211.076 769.47h601.856v-299.842l-202.072-140.484-82.388 63.908c-0.128 0.1-0.238 0.162-0.362 0.252-9.208 6.908-22.232 7.162-31.788-0.252l-82.986-64.37-202.26 139.786v301.002zM158.628 623.994v-119.28l-86.292 59.638 86.292 59.642zM52.516 514.266l317.338-219.31-316.698-245.648-0.64 464.958zM103.75 22.182l408.648 316.968 407.182-315.846-815.83-1.122zM654.288 295.458l316.552 220.072 0.64-466.118-317.192 246.046zM689.54 664.574h-355.072c-14.48 0-26.224-11.744-26.224-26.224s11.744-26.224 26.224-26.224h355.072c14.484 0 26.224 11.744 26.224 26.224s-11.74 26.224-26.224 26.224zM689.54 528.21h-355.072c-14.48 0-26.224-11.744-26.224-26.224s11.744-26.224 26.224-26.224h355.072c14.484 0 26.224 11.744 26.224 26.224s-11.74 26.224-26.224 26.224z" />
<glyph unicode="&#xe918;" glyph-name="shopping-cart" d="M307.407 285.773h564.225c63.978 0 116.17 52.192 116.17 116.17v237.391c0 0.21 0 0.631 0 0.842 0 0.631 0 1.052 0 1.684 0 0.421 0 0.842-0.21 1.263 0 0.421-0.21 1.052-0.21 1.473s-0.21 0.842-0.21 1.263c-0.21 0.421-0.21 0.842-0.421 1.473-0.21 0.421-0.21 0.842-0.421 1.263s-0.21 0.842-0.421 1.263c-0.21 0.421-0.421 0.842-0.631 1.473-0.21 0.421-0.421 0.842-0.631 1.052-0.21 0.421-0.421 0.842-0.631 1.263s-0.421 0.631-0.631 1.052c-0.21 0.421-0.631 0.842-0.842 1.263s-0.421 0.631-0.842 1.052c-0.21 0.421-0.631 0.631-0.842 1.052s-0.631 0.631-0.842 1.052-0.631 0.631-0.842 0.842c-0.421 0.421-0.631 0.631-1.052 1.052-0.421 0.21-0.631 0.631-1.052 0.842s-0.842 0.631-1.263 0.842c-0.421 0.21-0.631 0.421-1.052 0.631s-0.842 0.421-1.263 0.842c-0.421 0.21-0.842 0.421-1.263 0.631s-0.842 0.421-1.263 0.631-0.842 0.421-1.263 0.631-0.842 0.21-1.263 0.421c-0.421 0.21-1.052 0.421-1.473 0.421s-0.842 0.21-1.052 0.21-1.052 0.21-1.684 0.21c-0.21 0-0.421 0.21-0.842 0.21l-715.12 98.703v99.755c0 1.052 0 2.105-0.21 2.946 0 0.21 0 0.421-0.21 0.842 0 0.631-0.21 1.263-0.21 1.894-0.21 0.631-0.21 1.052-0.421 1.684 0 0.421-0.21 0.631-0.21 1.052-0.21 0.631-0.421 1.263-0.631 1.894 0 0.21-0.21 0.631-0.21 0.842-0.21 0.631-0.421 1.052-0.842 1.684-0.21 0.21-0.21 0.631-0.421 0.842-0.21 0.421-0.421 0.842-0.842 1.263-0.21 0.421-0.421 0.631-0.631 1.052s-0.421 0.631-0.631 1.052-0.631 0.842-0.842 1.263c-0.21 0.21-0.421 0.421-0.631 0.631-0.421 0.421-0.842 0.842-1.263 1.263-0.21 0.21-0.421 0.421-0.631 0.631-0.421 0.421-0.842 0.842-1.473 1.263-0.21 0.21-0.631 0.421-0.842 0.631-0.421 0.421-0.842 0.631-1.263 1.052-0.631 0.421-1.263 0.842-1.684 1.052-0.21 0.21-0.421 0.21-0.631 0.421-0.842 0.421-1.894 0.842-2.736 1.263l-155.104 65.24c-14.521 6.103-31.147-0.631-37.25-15.153s0.631-31.147 15.153-37.25l137.636-58.085v-622.521c0-58.927 44.195-107.752 101.228-115.118-10.312-17.257-16.415-37.461-16.415-58.927 0-63.346 51.561-114.697 114.697-114.697s114.697 51.561 114.697 114.697c0 21.045-5.682 41.038-15.784 57.875h255.49c-10.102-17.047-15.784-36.829-15.784-57.875 0-63.346 51.561-114.697 114.697-114.697s114.697 51.561 114.697 114.697-51.561 114.697-114.697 114.697h-536.656c-32.831 0-59.348 26.728-59.348 59.348v77.026c17.257-10.102 37.671-15.994 59.348-15.994zM448.831 50.907c0-31.989-26.096-57.875-57.875-57.875s-57.875 26.096-57.875 57.875 26.096 57.875 57.875 57.875 57.875-25.886 57.875-57.875zM902.148 50.907c0-31.989-26.096-57.875-57.875-57.875s-57.875 26.096-57.875 57.875 26.096 57.875 57.875 57.875 57.875-25.886 57.875-57.875zM871.632 342.596h-564.225c-32.831 0-59.348 26.728-59.348 59.348v307.051l682.921-94.073v-212.768c0-33.041-26.728-59.558-59.348-59.558z" />
<glyph unicode="&#xe919;" glyph-name="lamp" d="M576-64h-128c-29.867 0-64 25.6-64 76.8v89.6c0 42.667-21.333 81.067-55.467 110.933-76.8 59.733-115.2 145.067-115.2 238.933 4.267 162.133 136.533 290.133 294.4 294.4 81.067 0 157.867-29.867 213.333-85.333s89.6-132.267 89.6-213.333c0-89.6-38.4-174.933-110.933-230.4-38.4-29.867-59.733-76.8-59.733-119.467v-98.133c0-34.133-29.867-64-64-64zM512 704c-136.533 0-251.733-115.2-256-251.733 0-81.067 34.133-157.867 98.133-204.8 46.933-38.4 72.533-89.6 72.533-145.067v-89.6c0-8.533 0-34.133 21.333-34.133h128c12.8 0 21.333 8.533 21.333 21.333v98.133c0 55.467 29.867 115.2 76.8 153.6 59.733 46.933 93.867 119.467 93.867 196.267 0 68.267-25.6 132.267-76.8 183.467-46.933 46.933-110.933 72.533-179.2 72.533zM618.667 64h-213.333c-12.8 0-21.333 8.533-21.333 21.333s8.533 21.333 21.333 21.333h213.333c12.8 0 21.333-8.533 21.333-21.333s-8.533-21.333-21.333-21.333zM512 832c-12.8 0-21.333 8.533-21.333 21.333v85.333c0 12.8 8.533 21.333 21.333 21.333s21.333-8.533 21.333-21.333v-85.333c0-12.8-8.533-21.333-21.333-21.333zM797.867 712.533c-4.267 0-12.8 0-17.067 4.267-8.533 8.533-8.533 21.333 0 29.867l59.733 59.733c8.533 8.533 21.333 8.533 29.867 0s8.533-21.333 0-29.867l-59.733-59.733s-8.533-4.267-12.8-4.267zM1002.667 426.667h-85.333c-12.8 0-21.333 8.533-21.333 21.333s8.533 21.333 21.333 21.333h85.333c12.8 0 21.333-8.533 21.333-21.333s-8.533-21.333-21.333-21.333zM857.6 81.067c-4.267 0-12.8 0-17.067 4.267l-59.733 59.733c-8.533 8.533-8.533 21.333 0 29.867s21.333 8.533 29.867 0l59.733-59.733c8.533-8.533 8.533-21.333 0-29.867 0-4.267-4.267-4.267-12.8-4.267zM166.4 81.067c-4.267 0-12.8 0-17.067 4.267-8.533 8.533-8.533 21.333 0 29.867l59.733 59.733c8.533 8.533 21.333 8.533 29.867 0s8.533-21.333 0-29.867l-59.733-59.733c-4.267-4.267-8.533-4.267-12.8-4.267zM106.667 426.667h-85.333c-12.8 0-21.333 8.533-21.333 21.333s8.533 21.333 21.333 21.333h85.333c12.8 0 21.333-8.533 21.333-21.333s-8.533-21.333-21.333-21.333zM226.133 712.533c-4.267 0-12.8 0-17.067 4.267l-59.733 64c-8.533 8.533-8.533 21.333 0 29.867s21.333 8.533 29.867 0l59.733-59.733c8.533-8.533 8.533-21.333 0-29.867-4.267-4.267-8.533-8.533-12.8-8.533zM682.667 426.667c-12.8 0-21.333 8.533-21.333 21.333 0 81.067-68.267 149.333-149.333 149.333-12.8 0-21.333 8.533-21.333 21.333s8.533 21.333 21.333 21.333c106.667 0 192-85.333 192-192 0-12.8-8.533-21.333-21.333-21.333z" />
<glyph unicode="&#xe91a;" glyph-name="human-resources" d="M1003.994 391.972h-69.658c-11.044 0-19.998-8.954-19.998-19.998s8.956-19.998 19.998-19.998h21.034l-313.912-313.918-45.488 45.488v239.584c50.19 13.386 97.764 39.004 137.962 76.842 0.004 0.004 0.010 0.010 0.014 0.014 2.396 2.256 4.776 4.542 7.118 6.884 49.73 49.73 81.366 112.7 91.484 182.106 9.782 67.074-2.010 136.95-33.202 196.756-5.106 9.794-17.184 13.594-26.978 8.486s-13.594-17.186-8.484-26.98c54.066-103.676 39.292-227.61-35.634-315.346-25.38 56.016-75.346 97.042-134.728 111.414 20.172 20.604 32.642 48.778 32.642 79.824v62.682c0 62.964-51.224 114.19-114.19 114.19s-114.19-51.224-114.19-114.19v-62.682c0-31.044 12.47-59.22 32.642-79.824-59.376-14.372-109.334-55.39-134.72-111.396-94.986 111.45-89.838 279.55 15.46 384.85 91.33 91.33 232.85 109.6 344.158 44.426 9.534-5.584 21.78-2.376 27.364 7.154 5.58 9.532 2.376 21.782-7.154 27.362-126.998 74.362-288.46 53.53-392.65-50.656-126.318-126.32-126.318-331.856 0-458.178 41.646-41.646 91.904-69.552 145.094-83.736v-71.594l-56.218 56.218c-7.812 7.81-20.47 7.81-28.284 0l-98.576-98.576c-7.81-7.81-7.81-20.472 0-28.282 3.906-3.906 9.024-5.858 14.142-5.858s10.236 1.954 14.142 5.858l84.434 84.434 70.362-70.362v-174.974c0-46.316 37.68-83.994 83.994-83.994 46.316 0 83.994 37.68 83.994 83.994v6.984l31.346-31.346c3.906-3.906 9.024-5.858 14.142-5.858s10.236 1.954 14.142 5.858l328.396 328.398v-21.718c0-11.046 8.956-19.998 19.998-19.998 11.044 0 19.998 8.954 19.998 19.998v69.658c0.002 11.046-8.95 20-19.996 20zM511.976 780.002c36.5 0 66.93-26.492 73.064-61.26l-31.752 18.654c-8.422 4.95-19.182 3.088-25.458-4.398-15.902-18.978-39.228-29.864-63.99-29.864h-26.054v2.674h-0.002c-0.002 40.91 33.282 74.194 74.192 74.194zM437.78 663.138v0h26.056c30.854 0 60.2 11.428 82.744 31.81l39.586-23.256v-28.562c0-40.91-33.284-74.194-74.194-74.194s-74.194 33.284-74.194 74.194v20.008zM555.972 19.996c0-24.262-19.736-44-43.998-44-24.26 0-43.998 19.736-43.998 43.998v295.132c14.594-1.984 29.294-2.996 43.998-2.996s29.404 1.012 43.998 2.996v-295.13zM511.976 352.108c-66.204 0.006-132.424 22.964-185.532 68.854 21.824 64.132 82.292 107.978 150.994 107.978h14.54v-73.972c0-11.046 8.956-19.998 19.998-19.998 11.044 0 19.998 8.954 19.998 19.998v73.972h14.54c68.704 0 129.17-43.846 150.994-107.978-53.114-45.904-119.31-68.86-185.532-68.854zM166.14 102.134c-7.812 7.81-20.47 7.81-28.282 0l-131.992-131.992c-7.81-7.81-7.81-20.472 0-28.284 3.906-3.906 9.024-5.858 14.142-5.858s10.236 1.952 14.142 5.858l131.992 131.992c7.808 7.808 7.808 20.472-0.002 28.284zM222.132 158.126c-3.718 3.72-8.878 5.86-14.138 5.86s-10.42-2.14-14.14-5.86-5.86-8.88-5.86-14.14c0-5.26 2.138-10.42 5.86-14.14s8.88-5.86 14.14-5.86 10.42 2.14 14.138 5.86c3.72 3.72 5.862 8.88 5.862 14.14s-2.14 10.42-5.862 14.14zM746.932 850.908c0-11.045-8.953-19.998-19.998-19.998s-19.998 8.953-19.998 19.998c0 11.045 8.953 19.998 19.998 19.998s19.998-8.953 19.998-19.998z" />
<glyph unicode="&#xe91b;" glyph-name="empowerment" d="M848 608c0 177.536-138.528 322.992-313.12 334.848-7.52 0.752-15.152 1.152-22.88 1.152s-15.36-0.4-22.88-1.152c-174.592-11.856-313.12-157.312-313.12-334.848 0-145.232 61.664-217.2 116.048-280.688 37.36-43.616 69.616-81.328 75.952-136.496v-110.816c0-17.648 14.352-32 32-32h2.448l0.624-3.712c8.912-53.472 54.72-92.288 108.928-92.288s100.016 38.816 108.928 92.288l0.624 3.712h2.448c17.648 0 32 14.352 32 32v110.816c6.336 55.168 38.592 92.88 75.952 136.496 54.384 63.488 116.048 135.456 116.048 280.688zM704 720c0-54.048-22.544-102.88-58.608-137.792-14.768 36.208-43.808 64.592-79.456 79.104 14.576 13.408 23.984 32.048 25.488 52.992l17.52 26.272c9.84 14.768 15.056 31.968 15.056 49.744 0 49.44-40.24 89.68-89.68 89.68h-44.624c-49.456 0-89.696-40.24-89.696-89.68 0-17.76 5.216-34.976 15.056-49.744l17.52-26.272c1.504-20.928 10.912-39.584 25.488-52.992-35.648-14.512-64.704-42.896-79.456-79.104-36.064 34.912-58.608 83.744-58.608 137.792 0 105.872 86.128 192 192 192s192-86.128 192-192zM432 790.32c0 31.808 25.872 57.68 57.68 57.68h6.32v-38.112l-37.472-18.736c-9.968-4.992-17.6-13.072-22.064-22.736-2.848 6.928-4.464 14.304-4.464 21.904zM464 208v32h96v-32zM560 272h-96v32h96zM560 336h-96v32h96zM560 400h-96v32h96zM560 464h-96v37.312c15.488-3.392 31.52-5.312 48-5.312s32.512 1.92 48 5.312zM542.16 530.608l47.44 77.504c13.408-12.944 23.52-29.136 29.152-47.584-22.592-15.184-48.624-25.472-76.592-29.92zM528 568.784v69.808c12.64-1.84 24.624-5.808 35.648-11.584zM587.536 768.416c-4.464 9.664-12.096 17.744-22.064 22.736l-37.472 18.736v38.112h6.32c31.808 0 57.68-25.872 57.68-57.68 0-7.6-1.616-14.976-4.464-21.904zM464 720v28.224c0 6.096 3.392 11.584 8.848 14.32l39.152 19.568 39.152-19.584c5.456-2.736 8.848-8.208 8.848-14.304v-28.224c0-26.464-21.536-48-48-48s-48 21.536-48 48zM496 568.784l-35.648 58.224c11.024 5.776 23.008 9.744 35.648 11.584zM434.4 608.112l47.44-77.504c-27.968 4.448-54 14.736-76.608 29.92 5.632 18.448 15.76 34.64 29.168 47.584zM432 511.024v-303.024h-32v318.304c10.192-5.92 20.88-11.008 32-15.28zM400 176h224v-32h-224zM592 208v303.024c11.12 4.272 21.808 9.36 32 15.28v-318.304zM316.352 348.128c-53.264 62.176-108.352 126.464-108.352 259.872 0 99.968 48.704 188.528 123.408 243.984-27.152-37.072-43.408-82.608-43.408-131.984 0-68.704 31.152-130.208 80-171.328v-267.2c-14.736 23.408-32.896 44.768-51.648 66.656zM512-16c-37.968 0-70.016 26.848-76.976 64h153.936c-6.944-37.152-38.992-64-76.96-64zM400 80v32h224v-32zM656 281.456v267.2c48.848 41.12 80 102.624 80 171.328 0 49.376-16.256 94.912-43.408 131.984 74.704-55.44 123.408-144 123.408-243.968 0-133.408-55.088-197.696-108.352-259.872-18.752-21.888-36.912-43.248-51.648-66.672zM3.136 272h44.864v-128h32v160h-19.136l51.136 81.808 51.136-81.808h-19.136v-352h32v320h44.864l-108.864 174.192zM48 112h32v-96h-32zM912 446.192l-108.864-174.192h44.864v-128h32v160h-19.136l51.136 81.808 51.136-81.808h-19.136v-352h32v320h44.864zM848 112h32v-96h-32z" />
<glyph unicode="&#xe91c;" glyph-name="human-resources-1" d="M923.968 821.36l-23.936 21.28-116.72-131.328-36 36-22.624-22.624 60-60zM1008 768c0 97.040-78.96 176-176 176s-176-78.96-176-176c0-28.816 7.104-55.968 19.424-80h-93.872l8.016 48.096c1.616 9.696 2.432 19.568 2.432 29.36 0 98.448-80.096 178.544-178.544 178.544h-122.912c-98.448 0-178.544-80.096-178.544-178.544 0-9.776 0.816-19.664 2.432-29.36l12.096-72.592c-8.656-10.912-14.032-24.528-14.032-39.504 0-35.296 28.704-64 64-64h6.336c12.88-45.312 43.376-83.216 83.712-105.728l-8.096-40.48-113.28-20.592c-37.344-6.8-70.976-26.864-94.704-56.496-22.224-27.776-34.464-62.688-34.464-98.272v-286.432h672v64h320zM832 912c79.392 0 144-64.608 144-144s-64.608-144-144-144-144 64.608-144 144 64.608 144 144 144zM832 592c59.52 0 112.128 29.776 144 75.12v-107.12h-447.504c35.296 0 64 28.704 64 64 0 11.712-3.392 22.544-8.896 32h112.752c32.304-39.056 81.12-64 135.648-64zM528 608v48h0.496c17.648 0 32-14.352 32-32s-14.352-32-32-32h-1.296c0.464 5.28 0.8 10.592 0.8 16zM290.544 912h122.912c80.8 0 146.544-65.744 146.544-146.544 0-8.032-0.672-16.144-2-24.096l-9.488-56.88c-6.32 2.096-12.976 3.52-20.016 3.52h-9.392c-11.104 19.040-31.52 32-55.104 32h-80.496c-45.088 0-88.144 21.536-115.2 57.6l-9.632 12.848-12.816-9.68c-30.784-23.264-52.576-56.224-62.944-92.768h-6.432c-7.376 0-14.368-1.504-20.96-3.824l-9.536 57.168c-1.312 7.968-1.984 16.080-1.984 24.112 0 80.8 65.744 146.544 146.544 146.544zM176.496 592c-17.648 0-32 14.352-32 32s14.352 32 32 32h0.432c-0.48-5.184-0.928-10.368-0.928-15.6v-32.4c0-5.408 0.336-10.72 0.816-16zM208 608v32.4c0 39.744 16.768 77.984 45.488 104.992 33.12-36.208 80.576-57.392 130.016-57.392h80.496c17.648 0 32-14.352 32-32v-48c0-79.392-64.608-144-144-144s-144 64.608-144 144zM592 383.12c-10.608 4.496-21.68 7.984-33.168 10.064l-113.28 20.608-3.632 18.208h150.080zM333.552 240h36.896l42.672-256h-122.24zM371.424 272h-38.848l-8.944 36.816 28.368 22.688 28.352-22.688zM379.968 350.128l55.104 33.056 18.848-3.424-28.336-66.128zM352 432c19.392 0 38 3.28 55.472 9.088l6.64-33.168-62.112-37.264-62.096 37.264 6.64 33.168c17.456-5.808 36.064-9.088 55.456-9.088zM268.928 383.184l55.104-33.056-45.616-36.496-28.336 66.128zM48 238.432c0 28.336 9.744 56.144 27.456 78.272 18.896 23.632 45.68 39.616 75.44 45.008l66.896 12.16 47.792-111.504 30.496 24.384 7.616-31.36-45.248-271.392h-82.448v224h-32v-224h-96zM656-16h-96v224h-32v-224h-82.448l-45.232 271.408 7.616 31.36 30.496-24.384 47.792 111.504 66.896-12.176c29.744-5.392 56.544-21.376 75.44-45.008 17.696-22.128 27.44-49.92 27.44-78.272zM688 208h64v-64h-64zM688 48v64h96v128h-96.064c-0.352 35.040-12.496 69.328-34.4 96.704-8.624 10.768-18.592 20.24-29.536 28.304v98.992h-171.12c23.392 16.432 42.56 38.4 55.696 64h467.424v-480zM816 112h128v128h-128zM848 208h64v-64h-64zM688 464h256v-32h-256zM688 400h256v-32h-256zM688 336h128v-32h-128zM848 336h32v-32h-32zM912 336h32v-32h-32z" />
<glyph unicode="&#xe91d;" glyph-name="recruitment" d="M960 528c-5.632 0-10.976-1.152-16-2.944v18.944c0 26.464-21.536 48-48 48-6.32 0-12.32-1.296-17.856-3.52-4.128 15.2-15.44 27.328-30.144 32.576v290.944c0 17.648-14.352 32-32 32h-608c-17.648 0-32-14.352-32-32v-608.816c-89.568-8.112-160-83.536-160-175.184 0-97.040 78.96-176 176-176 54.528 0 103.344 24.944 135.664 64h392.336v-64h224v170.464c41.312 53.664 64 120.192 64 187.984v169.552c0 26.464-21.536 48-48 48zM192-16c-79.392 0-144 64.592-144 144s64.608 144 144 144 144-64.592 144-144-64.608-144-144-144zM348.576 48c12.32 24.032 19.424 51.184 19.424 80 0 91.648-70.432 167.072-160 175.184v608.816h608v-290.944c-14.704-5.248-26.032-17.376-30.144-32.576-5.536 2.224-11.536 3.52-17.856 3.52-26.464 0-48-21.536-48-48l0.016-88.896c-9.456 5.504-20.304 8.896-32.016 8.896-17.648 0-32-14.352-32-32v-121.552c0-35.040 6.176-69.696 17.728-102.448h-273.728v-96h320v-64zM432 144v32h32v-32zM496 176h32v-32h-32zM560 176h32v-32h-32zM624 176h32v-32h-32zM688 174.4c5.12-10.4 10.624-20.608 16.896-30.4h-16.896zM752-16v128h160v-128zM976 310.448c0-59.968-19.984-118.704-56.096-166.448h-175.808c-36.112 47.744-56.096 106.48-56.096 166.448v121.552c17.648 0 32-14.336 32-31.936v-64.064h32v64h0.016l-0.016 144c0 8.832 7.184 16 16 16s16-7.168 16-16v-208h32v240c0 8.832 7.184 16 16 16s16-7.168 16-16v-240h32v208c0 8.832 7.184 16 16 16s16-7.168 16-16v-208h32v144c0 8.832 7.184 16 16 16s16-7.168 16-16zM143.312 71.312l-36 36-22.624-22.624 60-60 139.28 156.688-23.936 21.248zM624 880h-384v-512h384zM592 848v-349.76c-17.36 21.056-41.984 35.936-70.336 39.984l-29.632 4.224-6.080 18.24c19.28 13.152 33.44 33.168 39.168 56.48l14.384 20.528c13.392 19.136 20.48 41.632 20.48 65.008 0.016 62.464-50.816 113.296-113.312 113.296h-29.36c-62.48 0-113.312-50.832-113.312-113.312 0-23.376 7.088-45.856 20.496-65.008l14.384-20.528c5.728-23.296 19.888-43.312 39.168-56.48l-6.080-18.24-29.632-4.224c-28.336-4.048-52.96-18.912-70.32-39.984v349.776zM340.032 677.52c-2.624 8.064-4.032 16.528-4.032 25.168 0 44.832 36.48 81.312 81.328 81.312h29.36c44.832 0 81.312-36.48 81.312-81.312 0-8.144-1.248-16.128-3.584-23.776-6.096 15.088-19.584 26.496-36.528 29.312l-31.264 5.216c-17.584 2.928-32 15.248-37.648 32.176l-3.808 11.44-30.352-10.128 3.808-11.44c1.552-4.656 3.504-9.088 5.808-13.296l-18.208-7.28c-17.28-6.896-30.096-20.656-36.192-37.392zM368 655.504c0 13.152 7.888 24.832 20.112 29.696l28.576 11.44c10.016-7.472 21.856-12.608 34.688-14.752l31.264-5.216c7.744-1.28 13.36-7.92 13.36-15.776v-20.864c0-35.296-28.704-64.016-64-64.032-35.296 0.016-64 28.736-64 64.032zM483.792 511.296l14.304-2.048-21.28-35.456-19.712 19.712zM431.968 544h0.064c8.528 0 16.768 1.232 24.656 3.344l4.272-12.816-28.96-19.296-28.96 19.296 4.272 12.816c7.888-2.112 16.128-3.344 24.656-3.344zM380.208 511.296l26.672-17.792-19.712-19.712-21.28 35.456zM332.384 502.944l48.448-80.736 51.168 51.168 51.184-51.168 48.448 80.736c28.496-9.76 49.76-35.008 53.6-65.68l4.64-37.264h-315.744l4.656 37.248c3.824 30.688 25.104 55.936 53.6 65.696zM656 848h32v-32h-32zM720 848h32v-32h-32zM656 784h128v-32h-128zM656 720h128v-32h-128zM656 656h96v-32h-96zM336 336h256v-32h-256zM368 272h224v-32h-224z" />
<glyph unicode="&#xe91e;" glyph-name="relationship" d="M512 240c-79.408 0-144-64.608-144-144s64.592-144 144-144 144 64.608 144 144-64.592 144-144 144zM450.832 2.288c7.984 26.576 32.72 45.712 61.168 45.712s53.184-19.136 61.168-45.712c-17.616-11.52-38.608-18.288-61.168-18.288s-43.552 6.768-61.168 18.288zM480 112c0 17.648 14.352 32 32 32s32-14.352 32-32-14.352-32-32-32-32 14.352-32 32zM598.448 24.88c-8.704 18.256-22.832 33.248-40.352 42.944 11.040 11.488 17.904 27.024 17.904 44.176 0 35.296-28.704 64-64 64s-64-28.704-64-64c0-17.152 6.864-32.688 17.904-44.192-17.52-9.696-31.632-24.672-40.352-42.944-15.952 19.376-25.552 44.16-25.552 71.136 0 61.76 50.256 112 112 112s112-50.24 112-112c0-26.976-9.6-51.76-25.552-71.12zM512 944c-79.408 0-144-64.608-144-144 0-18.64 3.68-36.4 10.144-52.768-8.24 2.88-16.944 4.768-26.144 4.768-26.464 0-48-21.552-48-48v-39.552c0-29.216-15.568-56.704-40.624-71.744-23.664-14.208-41.504-36.448-50.208-62.608l-0.368-1.12-196.8 16.4v-273.376h496c26.464 0 48 21.536 48 48 0 6.32-1.296 12.32-3.52 17.84 20.4 5.552 35.52 24.032 35.52 46.16 0 12.336-4.816 23.488-12.48 32 7.68 8.512 12.48 19.664 12.48 32s-4.816 23.488-12.48 32c7.68 8.512 12.48 19.664 12.48 32 0 26.448-21.52 48-47.984 48h-80.016c-17.648 0-32 14.352-32 32v80c0 3.072-0.576 5.984-0.912 8.96 23.088-15.728 50.928-24.96 80.912-24.96 79.408 0 144 64.608 144 144s-64.592 144-144 144zM208 304h-160v206.608l160-13.328zM464 528h80.016c8.816 0 15.984-7.184 15.984-16s-7.168-16-16-16h-112v-32h112c8.832 0 16-7.184 16-16s-7.168-16-16-16h-112v-32h112c8.832 0 16-7.184 16-16s-7.168-16-16-16h-112v-32h80c8.832 0 16-7.168 16-16s-7.168-16-16-16h-272v205.408l3.536 10.56c6.304 18.928 19.184 35.008 36.32 45.28 34.64 20.784 56.16 58.8 56.16 99.184v39.552c0 8.816 7.184 16 16 16 26.464 0 48-21.536 48-48v-80c-0.016-35.28 28.688-63.984 63.984-63.984zM512 688c-61.744 0-112 50.24-112 112s50.256 112 112 112 112-50.24 112-112-50.256-112-112-112zM864 592c-79.408 0-144-64.608-144-144s64.592-144 144-144 144 64.608 144 144-64.592 144-144 144zM864 336c-61.744 0-112 50.24-112 112s50.256 112 112 112 112-50.24 112-112-50.256-112-112-112zM912 496v-64h-32v96h-32v-96h-32v32h-32v-64h160v96zM496 816h32v-32h-32zM560 816h32v-32h-32zM432 816h32v-32h-32zM850.432 663.504l21.376-34.064 23.872 119.424-31.376 6.288-8.576-42.928c-41.344 54.72-93.28 95.664-160.96 127.328l-13.552-28.992c74.336-34.768 128.112-81.504 169.216-147.056zM120.448 630.768l29.008-13.552c34.736 74.304 81.472 128.080 147.040 169.216l34.048 21.36-119.408 23.888-6.272-31.36 42.928-8.592c-54.752-41.36-95.696-93.296-127.344-160.96zM173.568 232.496l-21.376 34.064-23.872-119.424 31.376-6.288 8.576 42.928c41.344-54.72 93.28-95.664 160.96-127.328l13.568 28.992c-74.352 34.768-128.128 81.504-169.232 147.056zM903.552 265.232l-29.008 13.552c-34.736-74.304-81.472-128.080-147.040-169.216l-34.048-21.36 119.408-23.888 6.288 31.376-42.928 8.592c54.736 41.344 95.68 93.28 127.328 160.944z" />
<glyph unicode="&#xe91f;" glyph-name="confirmation" d="M734.165 584.832c-16.64 16.661-43.691 16.661-60.331 0l-183.168-183.147-76.501 76.48c-16.64 16.661-43.691 16.661-60.331 0-16.661-16.661-16.661-43.669 0-60.331l106.667-106.667c8.32-8.341 19.243-12.501 30.165-12.501s21.845 4.16 30.165 12.501l213.333 213.333c16.661 16.661 16.661 43.669 0 60.331zM981.333 490.667c-23.552 0-42.667-19.115-42.667-42.667 0-235.264-191.403-426.667-426.667-426.667s-426.667 191.403-426.667 426.667 191.403 426.667 426.667 426.667c114.539 0 222.059-44.757 302.784-126.037 16.576-16.747 43.605-16.832 60.331-0.213 16.725 16.597 16.811 43.605 0.213 60.331-96.853 97.536-225.899 151.253-363.328 151.253-282.325 0-512-229.675-512-512s229.675-512 512-512 512 229.675 512 512c0 23.552-19.115 42.667-42.667 42.667z" />
<glyph unicode="&#xe920;" glyph-name="online-course" d="M928 832h-704c-38.985-0.057-71.438-27.949-78.553-64.863l-0.081-0.503c-32.508-6.273-57.727-31.492-63.919-63.496l-0.081-0.504c-37.418-7.196-65.31-39.65-65.366-78.628v-480.006c0.051-44.162 35.838-79.949 79.995-80h704.005c38.985 0.057 71.438 27.949 78.553 64.863l0.081 0.503c32.508 6.273 57.727 31.492 63.919 63.496l0.081 0.504c37.418 7.196 65.31 39.65 65.366 78.628v480.006c-0.051 44.162-35.838 79.949-79.995 80h-0.005zM48 624c0.031 26.497 21.503 47.969 47.997 48h704.003c26.497-0.031 47.969-21.503 48-47.997v-16.003h-800zM848 144c-0.031-26.497-21.503-47.969-47.997-48h-704.003c-26.497 0.031-47.969 21.503-48 47.997v432.003h800zM912 208c-0.027-20.764-13.213-38.441-31.666-45.142l-0.334-0.106v461.248c-0.051 44.162-35.838 79.949-79.995 80h-685.253c6.807 18.787 24.484 31.973 45.245 32h704.003c26.497-0.031 47.969-21.503 48-47.997v-0.003zM976 272c-0.027-20.764-13.213-38.441-31.666-45.142l-0.334-0.106v461.248c-0.051 44.162-35.838 79.949-79.995 80h-685.253c6.807 18.787 24.484 31.973 45.245 32h704.003c26.497-0.031 47.969-21.503 48-47.997v-0.003zM112 640c0-8.837-7.163-16-16-16s-16 7.163-16 16c0 8.837 7.163 16 16 16s16-7.163 16-16zM176 640c0-8.837-7.163-16-16-16s-16 7.163-16 16c0 8.837 7.163 16 16 16s16-7.163 16-16zM240 640c0-8.837-7.163-16-16-16s-16 7.163-16 16c0 8.837 7.163 16 16 16s16-7.163 16-16zM272 240h352c8.837 0 16 7.163 16 16v0 256c0 8.837-7.163 16-16 16v0h-352c-8.837 0-16-7.163-16-16v0-256c0-8.837 7.163-16 16-16v0zM288 496h320v-224h-320zM408.2 354.034c2.248-1.279 4.938-2.033 7.805-2.033 3.103 0 6 0.883 8.452 2.412l-0.068-0.039 78 48c4.599 2.865 7.614 7.893 7.614 13.626s-3.015 10.761-7.546 13.587l-0.068 0.039-78 48c-2.386 1.492-5.285 2.376-8.39 2.376-8.837 0-16-7.163-16-16 0-0.001 0-0.002 0-0.002v0-96c0.002-5.97 3.273-11.176 8.121-13.925l0.079-0.041zM432 435.368l31.472-19.368-31.472-19.368zM560 336h-32c0 8.837-7.163 16-16 16s-16-7.163-16-16v0h-160c-8.837 0-16-7.163-16-16s7.163-16 16-16v0h160c0-8.837 7.163-16 16-16s16 7.163 16 16v0h32c8.837 0 16 7.163 16 16s-7.163 16-16 16v0zM272 192h352c8.837 0 16 7.163 16 16s-7.163 16-16 16v0h-352c-8.837 0-16-7.163-16-16s7.163-16 16-16v0zM272 144h224c8.837 0 16 7.163 16 16s-7.163 16-16 16v0h-224c-8.837 0-16-7.163-16-16s7.163-16 16-16v0zM560 176h-16c-8.837 0-16-7.163-16-16s7.163-16 16-16v0h16c8.837 0 16 7.163 16 16s-7.163 16-16 16v0z" />
<glyph unicode="&#xe921;" glyph-name="paper-plane" d="M373.333 208.555v-197.888c0-13.824 8.875-26.069 22.016-30.421 3.285-1.067 6.656-1.579 9.984-1.579 9.984 0 19.627 4.693 25.771 13.056l115.755 157.525zM1010.56 954.069c-9.813 6.955-22.699 7.893-33.365 2.304l-960-501.333c-11.349-5.931-18.048-18.048-17.109-30.805 0.981-12.8 9.472-23.723 21.547-27.861l266.88-91.221 568.363 485.973-439.808-529.877 447.275-152.875c3.328-1.109 6.827-1.707 10.325-1.707 5.803 0 11.563 1.579 16.64 4.651 8.107 4.949 13.611 13.269 15.019 22.613l117.333 789.333c1.749 11.947-3.285 23.808-13.099 30.805z" />
<glyph unicode="&#xe922;" glyph-name="chat" d="M937.058 346.851c-8.28 20.478-31.596 30.376-52.076 22.092-20.482-8.28-30.374-31.594-22.094-52.076l47.11-116.532-139.916 61.678c-10.128 4.464-21.654 4.534-31.834 0.19-47.816-20.402-99.040-30.746-152.248-30.746-214.146 0-357.999 167.67-357.999 324.271 0 178.804 160.598 324.271 357.999 324.271s357.999-145.468 357.999-324.271c0-13.95-1.3-30.654-3.562-45.826-3.26-21.85 11.81-42.204 33.66-45.464 21.852-3.268 42.206 11.81 45.464 33.66 2.862 19.18 4.438 39.648 4.438 57.63 0 108.66-46.012 210.616-129.566 287.085-82.564 75.568-192.102 117.186-308.433 117.186s-225.868-41.618-308.433-117.184c-74.664-68.336-119.32-157.032-127.982-252.67-93.914-62.192-149.584-161.85-149.584-269.195 0-67.056 21.126-130.68 61.34-185.434l-58.424-144.524c-6.102-15.092-2.448-32.378 9.242-43.71 7.618-7.388 17.656-11.284 27.85-11.284 5.446 0.002 10.938 1.112 16.126 3.4l168.458 74.26c42.376-15.774 87.17-23.76 133.406-23.76 1 0 1.982 0.078 2.964 0.15 66.874 0.506 131.888 18.096 188.196 51.014 50.436 29.488 91.924 69.996 121.010 117.834 28.398 5.1 56.154 12.804 83.094 23.102l214.602-94.6c5.19-2.286 10.68-3.4 16.126-3.4 10.194 0.002 20.234 3.898 27.852 11.284 11.69 11.332 15.344 28.616 9.242 43.71l-84.026 207.858zM358.003 70.002c-0.546 0-1.078-0.060-1.62-0.082-40.844 0.208-80.156 8.236-116.87 23.9-10.178 4.346-21.704 4.276-31.832-0.19l-93.674-41.292 30.218 74.75c5.586 13.818 3.024 29.598-6.644 40.94-37.67 44.194-57.58 97.072-57.58 152.924 0 63.922 26.89 124.488 73.938 170.412 14.648-79.85 55.978-156.234 118.324-216.238 77.582-74.666 180.202-117.922 291.011-123.13-52.024-51.21-126.472-81.994-205.272-81.994zM624.001 554.001c0-22.091-17.909-40-40-40s-40 17.909-40 40c0 22.091 17.909 40 40 40s40-17.909 40-40zM784 554.001c0-22.091-17.909-40-40-40s-40 17.909-40 40c0 22.091 17.909 40 40 40s40-17.909 40-40zM464.001 554.001c0-22.091-17.909-40-40-40s-40 17.909-40 40c0 22.091 17.909 40 40 40s40-17.909 40-40z" />
<glyph unicode="&#xe923;" glyph-name="message-1" d="M990.204 735.26h-701.816c-18.666 0-33.796-15.13-33.796-33.796v-506.93c0-18.666 15.13-33.796 33.796-33.796h701.818c18.678 0 33.796 15.128 33.796 33.796v506.932c-0.002 18.666-15.132 33.794-33.798 33.794zM898.010 667.67l-267.67-226.688-253.466 226.688h521.136zM956.41 228.33h-634.228v397.568l285.018-254.908c12.56-11.242 31.508-11.49 44.362-0.598l304.846 258.162v-400.224zM191.508 481.796h-58.58c-18.666 0-33.796-15.13-33.796-33.796s15.13-33.796 33.796-33.796h58.578c18.666 0 33.796 15.13 33.796 33.796s-15.128 33.796-33.794 33.796zM191.508 344.36h-157.712c-18.666 0-33.796-15.128-33.796-33.794s15.13-33.796 33.796-33.796h157.712c18.666 0 33.796 15.13 33.796 33.796-0.002 18.666-15.13 33.794-33.796 33.794zM191.508 619.23h-157.712c-18.666 0-33.796-15.13-33.796-33.796s15.13-33.796 33.796-33.796h157.712c18.666 0 33.796 15.13 33.796 33.796s-15.13 33.796-33.796 33.796z" />
<glyph unicode="&#xe924;" glyph-name="creativity" d="M883.507 209.067c5.42 28.774 5.281 58.319-0.41 87.040l78.165 188.638c0.008 0.125 0.008 0.25 0 0.375 12.666 34.679 31.229 66.908 54.869 95.266 5.882 6.213 8.248 14.966 6.298 23.296l-32.051 138.411c-0.381 1.447-0.955 2.836-1.707 4.13-0.137 0.256-0.188 0.563-0.324 0.802s-0.734 0.819-1.075 1.263c-0.698 1.023-1.505 1.967-2.406 2.816-0.594 0.418-1.215 0.794-1.86 1.126-0.832 0.613-1.718 1.149-2.645 1.604-1.287 0.486-2.628 0.813-3.994 0.973-0.393 0-0.734 0.256-1.126 0.29-3.271 0.218-6.536-0.511-9.404-2.099-0.256-0.137-0.563-0.188-0.819-0.341h-0.171l-120.508-75.213c-7.298-4.519-11.828-12.411-12.049-20.992-3.348-36.85-13.054-72.841-28.689-106.377v-0.188l-39.066-94.43c-19.174 10.193-39.7 17.606-60.962 22.016 8.048 55.553 11.007 111.725 8.841 167.817 31.77 38.118 47.017 87.336 42.359 136.738-10.667 99.465-100.557 171.298-104.397 174.319-5.771 4.545-13.804 4.887-19.94 0.849s-9.001-11.55-7.11-18.649c8.789-33.007 1.178-67.84-63.744-139.469-29.169-28.165-38.414-71.17-23.398-108.834 5.741-14.406 13.967-27.692 24.303-39.253-4.13-26.368-7.373-51.337-9.609-75.657-3.85-40.225-4.842-80.672-2.97-121.037-15.225-8.255-29.479-18.187-42.496-29.611l-82.773 353.963c0 0.358-0.341 0.614-0.444 0.939-0.278 1.138-0.678 2.242-1.195 3.294l-84.548 156.143c-8.461 15.628-26.337 23.659-43.64 19.607s-29.754-19.186-30.395-36.946l-6.417-177.408c0.004-1.28 0.147-2.556 0.427-3.806 0-0.273 0-0.512 0-0.768l84.446-360.397c-13.321-0.588-26.545-2.561-39.458-5.888l-92.894 224.341c-7.449 17.149-27.205 25.241-44.544 18.244l-141.978-58.778c-17.376-7.253-25.634-27.177-18.483-44.595l125.986-303.923c-73.839-3.877-131.154-65.861-129.249-139.777s62.34-132.864 136.28-132.931h750.933c48.779 0.707 93.475 27.384 117.251 69.981s23.022 94.643-1.98 136.533c-25.002 41.89-70.453 67.259-119.231 66.552zM866.116 650.82l71.543 44.646-25.327-61.167c-3.61-8.709 0.524-18.696 9.233-22.306s18.696 0.524 22.306 9.233l25.327 61.167 18.961-82.142c-20.287-24.749-36.951-52.257-49.493-81.698-17.793-8.248-38.226-8.676-56.349-1.18s-32.284 22.231-39.053 40.638c11.986 29.694 19.681 60.944 22.852 92.809zM826.863 516.83c11.291-13.804 25.943-24.471 42.547-30.976 13.199-5.677 27.395-8.671 41.762-8.806 3.457 0.013 6.91 0.224 10.342 0.631l-54.46-131.413c-16.307 35.954-41.534 67.144-73.284 90.607l33.092 79.957zM593.050 638.72l85.743-5.239c0.529-15.94 0.341-32.427-0.188-49.169-28.564-2.041-57.27-0.654-85.504 4.13-2.15 0.307-4.25 0.546-6.383 0.836 1.707 16.077 3.789 32.358 6.298 49.442h0.034zM584.909 776.158c45.312 49.988 68.796 88.439 74.257 124.587 32.57-33.511 54.070-76.212 61.594-122.334 3.584-40.151-8.83-80.093-34.543-111.138-33.712 2.048-67.055 4.096-100.028 6.144-14.168 13.245-22.318 31.697-22.566 51.090s7.428 38.048 21.252 51.651h0.034zM583.612 555.264l4.949-0.649c21.991-3.401 44.191-5.289 66.441-5.649 7.066 0 14.507 0.563 21.965 1.143-1.553-21.965-4.096-44.902-7.322-68.608-4.215 0.222-8.346 0.631-12.578 0.631-25.767-0.046-51.341-4.449-75.639-13.022-0.787 28.735-0.069 57.492 2.15 86.153h0.034zM451.601 355.686l-48.828 207.991c-2.283 9.024-11.375 14.554-20.437 12.431s-14.753-11.115-12.792-20.214l43.878-187.204c-12.064 4.314-24.527 7.419-37.205 9.267l-74.906 319.659c10.493-4.778 21.887-7.256 33.417-7.27 1.075 0 2.219 0.154 3.311 0.205l12.066-51.524c1.3-6.031 5.754-10.89 11.649-12.71s12.313-0.317 16.787 3.932c4.474 4.248 6.306 10.58 4.793 16.561l-12.083 51.558c11.579 5.126 21.792 12.901 29.815 22.699l76.151-325.615c-9.889-12.335-18.474-25.661-25.617-39.765zM347.324 726.033c-21.827-4.233-44.112 4.69-56.986 22.818l2.167 60.109c5.938-1.109 11.964-1.68 18.005-1.707 5.835-0.024 11.653 0.623 17.34 1.929 11.513 3.024 22.283 8.379 31.642 15.735l28.74-53.043c-3.424-22.008-19.435-39.963-40.909-45.875v0.034zM300.578 925.406c2.325 0.538 4.724-0.536 5.871-2.628l36.591-67.669c-6.601-5.972-14.483-10.35-23.040-12.8-8.746-1.605-17.744-1.179-26.3 1.246l2.782 76.902c0.093 2.385 1.771 4.412 4.096 4.949zM177.067 584.533l13.039-31.505-63.147-26.146c-7.486-3.144-11.721-11.126-10.126-19.088s8.578-13.697 16.697-13.715c2.242 0.005 4.462 0.445 6.537 1.297l63.147 26.163 13.056-31.539-31.59-13.090c-7.529-3.116-11.805-11.119-10.21-19.11s8.616-13.739 16.764-13.726c2.236 0.008 4.45 0.448 6.519 1.297l31.59 13.090 13.056-31.539-63.198-26.197c-7.529-3.116-11.805-11.119-10.21-19.11s8.616-13.739 16.764-13.726c2.237 0.006 4.451 0.447 6.519 1.297l63.147 26.146 13.807-33.331c-55.614-25.384-96.394-75.021-110.507-134.502l-123.699 298.257 142.046 58.778zM887.467-29.867h-750.933c-56.554 0-102.4 45.846-102.4 102.4s45.846 102.4 102.4 102.4c9.889 0.033 19.728-1.393 29.201-4.233 5.117-1.546 10.663-0.605 14.984 2.543s6.917 8.138 7.015 13.483c1.214 60.824 36.376 115.85 91.062 142.506s119.692 20.455 168.352-16.059c4.3-3.2 9.854-4.195 14.997-2.685s9.278 5.348 11.166 10.365c33.343 88.863 125.498 141.134 218.878 124.149s161.228-98.357 161.145-193.269c0.033-19.518-2.872-38.93-8.619-57.583-1.794-5.803-0.368-12.123 3.745-16.594s10.291-6.419 16.223-5.115c7.483 1.647 15.122 2.482 22.784 2.492 56.554 0 102.4-45.846 102.4-102.4s-45.846-102.4-102.4-102.4zM660.224 692.053c5.357-0.020 10.412 2.476 13.653 6.741 21.307 28.838 29.541 65.292 22.699 100.489-1.456 6.018-6.057 10.776-12.023 12.432s-12.361-0.048-16.711-4.455c-4.35-4.406-5.972-10.823-4.239-16.767 4.086-25.010-2.011-50.615-16.93-71.1-3.879-5.172-4.503-12.091-1.612-17.872s8.801-9.434 15.265-9.434l-0.102-0.034zM637.781 174.933c-12.691-0.039-25.208-2.957-36.608-8.533-30.702 42.011-88.028 54.318-133.267 28.61s-64.007-81.255-43.629-129.133c2.681-6.293 8.861-10.377 15.701-10.377 2.3-0.005 4.576 0.459 6.69 1.365 4.164 1.774 7.453 5.13 9.143 9.329s1.642 8.898-0.132 13.062c-3.715 8.66-5.631 17.985-5.632 27.409 0 37.703 30.564 68.267 68.267 68.267 26.479 0.132 50.596-15.212 61.696-39.253 0.369-0.556 0.768-1.091 1.195-1.604 0.27-0.585 0.572-1.155 0.905-1.707 0.307-0.375 0.751-0.546 1.092-0.905 0.801-0.831 1.687-1.575 2.645-2.219 0.853-0.656 1.767-1.228 2.731-1.707 0.991-0.416 2.020-0.736 3.072-0.956 1.050-0.276 2.125-0.441 3.209-0.495 2.217 0.018 4.418 0.386 6.519 1.092 0.455 0.084 0.905 0.192 1.348 0.324 0.554 0.358 1.084 0.751 1.587 1.178 0.614 0.273 1.213 0.581 1.792 0.922 8.965 7.25 20.146 11.202 31.676 11.196 19.955-0.032 38.073-11.656 46.421-29.781 3.912-8.577 14.036-12.36 22.613-8.448s12.36 14.036 8.448 22.613c-13.897 30.291-44.156 49.719-77.483 49.749zM301.807 293.53c-2.577-0.836-62.874-21.692-62.874-84.463 0-9.426 7.641-17.067 17.067-17.067s17.067 7.641 17.067 17.067c1.393 23.808 17.058 44.404 39.629 52.105 8.954 3.007 13.776 12.703 10.769 21.658s-12.703 13.776-21.658 10.769v-0.068zM541.986 311.979c1.355-0.344 2.749-0.516 4.147-0.512 7.822 0.008 14.637 5.332 16.538 12.919 7.855 31.869 36.068 54.539 68.881 55.347 9.426 0.024 17.048 7.684 17.024 17.109s-7.684 17.048-17.109 17.024c-48.509-0.644-90.428-34.046-101.888-81.186-2.29-9.143 3.265-18.411 12.407-20.702z" />
<glyph unicode="&#xe925;" glyph-name="needs" d="M622.72 473.16h-27.004c15.030 18.53 24.060 42.114 24.060 67.776v24.448c0 59.428-48.348 107.776-107.776 107.776s-107.776-48.348-107.776-107.776v-24.448c0-25.662 9.030-49.246 24.060-67.776h-27.004c-48.524 0-88-39.476-88-88v-210.72c0-11.046 8.954-20 20-20h78.72c11.046 0 20 8.954 20 20v19.996h160v-218.436h-60v158.436c0 11.046-8.956 20-20 20-11.046 0-20-8.954-20-20v-158.436h-60v19.218c0 11.046-8.954 20-20 20s-20-8.954-20-20v-39.218c0-11.046 8.954-20 20-20h200c11.044 0 20 8.954 20 20v198.44h58.72c11.044 0 20 8.954 20 20v210.72c0 48.524-39.476 88-88 88zM543.716 433.16l-31.716-31.716-31.716 31.716zM444.224 540.936v24.448c0 37.372 30.404 67.776 67.776 67.776 37.37 0 67.776-30.404 67.776-67.776v-24.448c0-37.372-30.404-67.776-67.776-67.776s-67.776 30.404-67.776 67.776zM670.72 194.44h-38.72v158.72c0 11.046-8.956 20-20 20s-20-8.954-20-20v-118.724h-160v118.724c0 11.046-8.954 20-20 20s-20-8.954-20-20v-158.72h-38.72v190.72c0 26.468 21.534 48 48 48h22.434l74.142-74.142c3.906-3.906 9.024-5.858 14.142-5.858 5.12 0 10.236 1.952 14.142 5.858l74.142 74.142h22.436c26.466 0 48-21.532 48-48v-190.72zM432 85.218c0-11.046-8.954-20-20-20s-20 8.954-20 20c0 11.046 8.954 20 20 20s20-8.954 20-20zM438.54 790c0 45.422-17.686 88.112-49.792 120.2-32.096 32.114-74.786 49.8-120.208 49.8h-98.54c-45.42 0-88.112-17.686-120.2-49.792-32.114-32.096-49.8-74.788-49.8-120.208 0-93.738 76.262-170 170-170h98.54c93.738 0 170 76.262 170 170zM268.54 660h-98.54c-71.682 0-130 58.318-130 130 0 34.732 13.522 67.376 38.084 91.924 24.54 24.554 57.184 38.076 91.916 38.076h98.54c34.732 0 67.376-13.522 91.922-38.084 24.556-24.54 38.078-57.184 38.078-91.916 0-71.682-58.318-130-130-130zM286.182 874.19c-22.39 9.718-47.586 6.81-66.908-6.462-19.33 13.278-44.522 16.184-66.9 6.462-16.23-7.042-29.006-19.764-35.978-35.828-12.956-29.85-3.796-64.188 22.272-83.504l68.686-50.924c3.536-2.622 7.724-3.934 11.91-3.934s8.372 1.31 11.908 3.932l68.688 50.902c20.144 14.924 30.464 38.71 27.61 63.624-2.854 24.916-18.29 45.75-41.288 55.732zM276.048 786.974c0-0.002 0-0.002 0 0l-56.782-42.078-56.78 42.098c-12.882 9.546-13.902 25.064-9.396 35.444 2.064 4.756 6.376 11.226 15.214 15.060 4.054 1.76 8.034 2.534 11.818 2.534 9.774 0 18.24-5.154 23.294-11.732 3.786-4.928 9.648-7.816 15.862-7.814 6.214 0 12.074 2.89 15.86 7.818 7.004 9.122 20.582 15.5 35.122 9.192 9.732-4.224 16.264-13.042 17.472-23.592 1.208-10.548-3.16-20.616-11.684-26.93zM974.206 910.2c-32.094 32.114-74.784 49.8-120.206 49.8h-98.54c-45.42 0-88.112-17.686-120.202-49.792-32.112-32.096-49.798-74.788-49.798-120.208 0-93.738 76.262-170 170-170h98.54c93.738 0 170 76.262 170 170 0 45.422-17.688 88.112-49.794 120.2zM854 660h-98.54c-71.682 0-130 58.318-130 130 0 34.732 13.522 67.376 38.084 91.922 24.542 24.556 57.184 38.078 91.916 38.078h98.54c34.732 0 67.376-13.522 91.922-38.084 24.554-24.54 38.078-57.184 38.078-91.916 0-71.682-58.318-130-130-130zM884.886 825.42l-39.178 13.592-25.034 33.062c-3.782 4.994-9.682 7.926-15.946 7.926-6.262 0-12.164-2.934-15.946-7.926l-25.034-33.062-39.18-13.592c-5.918-2.052-10.532-6.758-12.466-12.714-1.936-5.958-0.968-12.476 2.612-17.614l23.708-34.026 0.82-41.462c0.124-6.26 3.174-12.102 8.24-15.784 5.064-3.68 11.566-4.776 17.558-2.958l39.686 12.032 39.686-12.032c1.902-0.578 3.858-0.86 5.8-0.86 4.176 0 8.3 1.308 11.758 3.82 5.066 3.682 8.118 9.524 8.24 15.786l0.82 41.462 23.706 34.024c3.58 5.138 4.546 11.658 2.612 17.614-1.93 5.954-6.544 10.66-12.462 12.712zM834.748 778.958c-2.26-3.244-3.508-7.084-3.586-11.038l-0.418-21.116-20.21 6.128c-3.782 1.146-7.824 1.146-11.606 0l-20.214-6.128-0.418 21.118c-0.078 3.952-1.326 7.792-3.586 11.038l-12.074 17.328 19.954 6.922c3.736 1.296 7.004 3.67 9.39 6.822l12.75 16.838 12.748-16.838c2.386-3.152 5.654-5.526 9.39-6.822l19.954-6.922z" />
<glyph unicode="&#xe926;" glyph-name="photo-camera" d="M921.6 652.8h-56.713l-51.2 127.607c-10.172 26.042-35.308 43.15-63.266 43.059h-111.872c6.528 3.007 10.726 9.521 10.769 16.708-0.067 9.052-6.583 16.767-15.497 18.347-17.173 3.027-32.975 11.331-45.21 23.757-12.408 12.233-20.695 28.030-23.706 45.193-1.597 8.912-9.327 15.415-18.381 15.462-9.039-0.083-16.735-6.596-18.313-15.497-6.366-35.095-33.836-62.558-68.932-68.915-8.951-1.548-15.489-9.314-15.489-18.398s6.538-16.85 15.489-18.398c17.187-3.026 33.002-11.337 45.244-23.774 5.083-5.141 9.488-10.911 13.107-17.169l-0.137-0.29-51.2-127.693h-126.498c-7.329 42.88-40.917 76.469-83.797 83.797v35.669c0 28.277-22.923 51.2-51.2 51.2h-68.267c-28.277 0-51.2-22.923-51.2-51.2v-35.669c-49.208-8.36-85.241-50.951-85.333-100.864v-597.333c0.056-56.531 45.869-102.344 102.4-102.4h819.2c56.531 0.056 102.344 45.869 102.4 102.4v512c-0.056 56.531-45.869 102.344-102.4 102.4zM547.669 53.385c-91.294 49.738-145.019 148.313-137.341 251.992s75.335 193.266 172.959 229.015c58.683 21.344 123.008 21.344 181.692 0 92.668-34.416 158.416-117.628 170.463-215.744s-31.616-194.763-113.205-250.575c-81.589-55.813-187.49-61.478-274.568-14.688zM972.8 285.867c-0.304 99.19-49.609 191.821-131.721 247.467h148.787v-477.867h-125.713c68.793 56.731 108.64 141.232 108.646 230.4zM987.443 567.467h-213.948c-64.336 22.469-134.388 22.469-198.724 0h-96.905c-9.426 0-17.067-7.641-17.067-17.067s7.641-17.067 17.067-17.067h29.321c-78.135-52.627-126.836-139.055-131.376-233.151s35.613-184.811 108.319-244.716h-142.797v477.867h34.133c9.426 0 17.067 7.641 17.067 17.067s-7.641 17.067-17.067 17.067h-34.133v51.2h580.267c31.034-0.116 58.085-21.151 65.843-51.2zM34.133 567.467h273.067v-477.867h-273.067v477.867zM597.333 652.8l23.142 51.2h90.283l23.108-51.2h-136.533zM546.492 880.981c5.020-8.328 11.057-15.998 17.971-22.835 6.846-6.919 14.515-12.971 22.835-18.022-8.291-5.008-15.927-11.027-22.733-17.92-1.451-1.434-2.679-3.038-4.045-4.54-0.995-0.866-1.878-1.852-2.628-2.935-4.192-4.805-7.988-9.941-11.349-15.36-5.008 8.286-11.022 15.922-17.903 22.733-6.875 6.948-14.579 13.024-22.938 18.091 16.693 10.1 30.69 24.096 40.789 40.789zM537.958 739.755c2.629-1.505 5.591-2.332 8.619-2.406h0.085c9.044 0.085 16.742 6.606 18.313 15.514 2.366 13.283 7.912 25.796 16.162 36.471h169.284c13.973 0.050 26.533-8.513 31.59-21.538l46.080-114.995h-56.678l-34.133 75.298c-2.759 6.103-8.833 10.027-15.531 10.035h-112.299c-6.704-0.001-12.786-3.927-15.548-10.035l-34.031-75.298h-56.781l34.867 86.955zM119.467 772.267c0 9.426 7.641 17.067 17.067 17.067h68.267c9.426 0 17.067-7.641 17.067-17.067v-34.133h-102.4v34.133zM102.4 704h136.533c37.703 0 68.267-30.564 68.267-68.267v-34.133h-273.067v34.133c0 37.703 30.564 68.267 68.267 68.267zM102.4-29.867c-37.703 0-68.267 30.564-68.267 68.267v17.067h273.067v-17.067c0-37.703-30.564-68.267-68.267-68.267h-136.533zM921.6-29.867h-606.549c12.934 14.377 21.516 32.133 24.747 51.2h195.652c86.855-45.511 190.512-45.511 277.367 0h174.626c-7.758-30.049-34.809-51.084-65.843-51.2zM694.921 56.388c20.59 1.845 40.83 6.496 60.16 13.824 57.008 21.702 103.238 64.886 128.768 120.286 13.689 29.927 20.746 62.46 20.685 95.369 0 7.526-0.427 14.985-1.143 22.409-1.934 20.032-6.525 39.718-13.653 58.539-42.253 113.021-164.705 174.132-280.422 139.947-5.427-1.587-10.871-3.191-16.179-5.12-57.029-21.717-103.272-64.927-128.802-120.354-13.667-29.949-20.694-62.5-20.599-95.42 0-7.526 0.427-14.985 1.143-22.409 1.934-20.032 6.525-39.718 13.653-58.539 21.702-57.033 64.908-103.279 120.337-128.802 29.898-13.662 62.394-20.706 95.266-20.651 6.986 0 13.915 0.307 20.787 0.922zM649.523 91.307c-0.427 0-0.87 0-1.297 0.137-6.025 0.785-11.947 1.894-17.92 3.243-0.939 0.205-1.86 0.478-2.782 0.7-4.796 1.178-9.557 2.526-14.251 4.062-1.519 0.495-3.021 1.007-4.523 1.536s-3.004 1.212-4.523 1.707l12.646 119.569 1.911-2.372 100.983-124.74c-10.425-2.536-21.043-4.203-31.744-4.983-1.212 0-2.406-0.119-3.618-0.171-4.801-0.262-9.597-0.336-14.387-0.222-1.399 0-2.816 0-4.215 0.119-5.444 0.256-10.871 0.683-16.282 1.417zM520.26 164.693c-0.7 0.887-1.451 1.707-2.133 2.611-3.413 4.574-6.827 9.301-9.83 14.148-0.87 1.365-1.707 2.782-2.475 4.181-2.185 3.635-4.267 7.339-6.212 11.11-0.905 1.707-1.707 3.413-2.628 5.257-0.614 1.297-1.126 2.645-1.707 3.959l93.457 75.708-17.067-162.714c-3.789 2.355-7.578 4.71-11.213 7.305-0.239 0.188-0.512 0.341-0.768 0.529-4.71 3.413-9.233 7.083-13.653 10.906-1.246 1.075-2.441 2.219-3.669 3.413-3.14 2.879-6.195 5.848-9.165 8.909-1.263 1.331-2.543 2.645-3.772 3.994-3.209 3.277-6.246 6.878-9.165 10.564v0.119zM514.987 400.589c3.413 4.659 7.014 9.114 10.786 13.466 1.143 1.314 2.338 2.56 3.516 3.84 2.833 3.106 5.734 6.11 8.755 9.011 1.348 1.297 2.679 2.577 4.045 3.823 3.413 3.209 7.134 6.263 10.854 9.216 0.836 0.666 1.707 1.382 2.492 2.031 4.551 3.493 9.301 6.787 14.251 9.882 1.263 0.819 2.594 1.536 3.874 2.321 3.755 2.253 7.595 4.42 11.503 6.417 1.621 0.836 3.26 1.707 4.915 2.458 1.365 0.649 2.765 1.178 4.13 1.792l4.915-6.042 70.793-87.398-1.57 0.154-161.143 16.964c2.236 3.601 4.489 7.202 6.946 10.667 0.324 0.324 0.614 0.819 0.939 1.28v0.119zM640.734 479.334c4.113 0.717 8.243 1.246 12.39 1.707 1.28 0.137 2.543 0.358 3.84 0.461 5.274 0.461 10.598 0.683 15.957 0.717 1.519 0 3.038-0.102 4.557-0.119 4.733-0.080 9.432-0.33 14.097-0.751 2.167-0.188 4.335-0.393 6.485-0.649 5.12-0.631 10.138-1.434 15.155-2.441 1.417-0.29 2.833-0.563 4.25-0.887 5.393-1.212 10.735-2.697 16.026-4.386 1.707-0.546 3.413-1.143 5.12-1.707s3.618-1.434 5.427-2.133l-12.629-119.467-2.731 3.413-100.198 123.785c2.167 0.512 4.335 1.041 6.537 1.502 1.911 0.068 3.806 0.512 5.717 0.836v0.119zM828.006 407.279c0.7-0.887 1.451-1.707 2.133-2.611 3.413-4.574 6.827-9.301 9.83-14.148 0.87-1.365 1.707-2.782 2.475-4.181 2.185-3.635 4.267-7.339 6.212-11.11 0.905-1.707 1.707-3.413 2.628-5.257 0.614-1.297 1.126-2.645 1.707-3.959l-93.457-75.708 17.067 162.714c3.789-2.355 7.578-4.71 11.213-7.305 0.239-0.188 0.512-0.341 0.768-0.529 4.71-3.413 9.233-7.083 13.653-10.906 1.246-1.075 2.441-2.219 3.669-3.413 3.14-2.89 6.195-5.86 9.165-8.909 1.263-1.331 2.543-2.645 3.772-3.994 3.209-3.516 6.246-7.117 9.165-10.803v0.119zM833.246 171.366c-3.413-4.642-6.98-9.079-10.718-13.397-1.178-1.365-2.423-2.662-3.635-3.994-2.782-3.038-5.649-5.973-8.533-8.841-1.382-1.331-2.765-2.662-4.181-3.942-3.413-3.118-6.94-6.11-10.581-8.977-0.922-0.734-1.809-1.536-2.748-2.253-4.551-3.482-9.267-6.753-14.148-9.813-1.331-0.853-2.731-1.621-4.079-2.441-3.686-2.202-7.424-4.301-11.247-6.281-1.707-0.87-3.413-1.707-5.12-2.56-1.314-0.631-2.697-1.143-4.028-1.707l-75.691 93.457 1.707-0.171 161.024-16.947c-2.219-3.567-4.437-7.117-6.827-10.53-0.512-0.683-0.819-1.229-1.195-1.724v0.119zM482.645 243.678c-1.126 5.018-2.014 10.069-2.731 15.172-0.273 2.031-0.597 4.028-0.819 6.059-0.778 6.959-1.189 13.955-1.229 20.958 0 6.588 0.393 13.124 1.024 19.593 0.222 2.15 0.597 4.267 0.887 6.4 0.563 4.301 1.212 8.533 2.065 12.851 0.512 2.492 1.126 4.966 1.707 7.441 0.939 3.84 1.963 7.663 3.14 11.452 0.785 2.56 1.707 5.12 2.526 7.629 0.546 1.519 1.195 3.021 1.792 4.54l119.467-12.629-127.13-102.946c-0.188 1.161-0.358 2.321-0.7 3.482zM865.621 328.055c1.126-5.018 2.014-10.069 2.731-15.172 0.273-2.031 0.597-4.028 0.819-6.059 0.778-6.959 1.189-13.955 1.229-20.958 0-6.588-0.393-13.124-1.024-19.593-0.222-2.15-0.597-4.25-0.887-6.383-0.563-4.318-1.212-8.636-2.065-12.885-0.512-2.475-1.126-4.932-1.707-7.373-0.939-3.891-1.98-7.748-3.157-11.571-0.785-2.509-1.604-5.001-2.492-7.475-0.546-1.553-1.212-3.072-1.809-4.608l-119.467 12.612 127.13 102.946c0.188-1.161 0.444-2.321 0.7-3.482zM626.193 311.876l32.427 26.249 41.557-4.335 26.249-32.427-4.335-41.574-32.427-26.249-41.557 4.335-26.249 32.427 4.335 41.574zM443.733 550.4c0-9.426-7.641-17.067-17.067-17.067s-17.067 7.641-17.067 17.067c0 9.426 7.641 17.067 17.067 17.067s17.067-7.641 17.067-17.067zM994.867 954.999l-24.132-24.132c-4.437-4.285-6.216-10.63-4.654-16.597s6.222-10.627 12.189-12.189c5.967-1.562 12.312 0.217 16.597 4.654l24.132 24.132c6.468 6.697 6.375 17.341-0.208 23.924s-17.228 6.676-23.924 0.208zM922.47 906.718c6.669-6.664 17.477-6.66 24.141 0.009s6.66 17.477-0.009 24.141l-24.149 24.149c-4.317 4.311-10.606 5.991-16.497 4.408s-10.491-6.189-12.066-12.083c-1.575-5.894 0.114-12.18 4.431-16.491l24.149-24.132zM898.321 834.321c6.665-6.663 17.468-6.663 24.132 0l24.149 24.132c4.314 4.311 6 10.596 4.424 16.487s-6.176 10.494-12.066 12.075c-5.89 1.581-12.176-0.101-16.49-4.412l-24.149-24.132c-3.205-3.201-5.005-7.545-5.005-12.075s1.801-8.874 5.005-12.075zM994.867 882.586c-6.697 6.468-17.341 6.375-23.924-0.208s-6.676-17.228-0.208-23.924l24.132-24.132c6.697-6.468 17.341-6.375 23.924 0.208s6.676 17.228 0.208 23.924l-24.132 24.132zM85.333 533.333c-9.426 0-17.067-7.641-17.067-17.067v-34.133c0-9.426 7.641-17.067 17.067-17.067s17.067 7.641 17.067 17.067v34.133c0 9.426-7.641 17.067-17.067 17.067zM85.333 430.933c-9.426 0-17.067-7.641-17.067-17.067v-204.8c0-9.426 7.641-17.067 17.067-17.067s17.067 7.641 17.067 17.067v204.8c0 9.426-7.641 17.067-17.067 17.067z" />
<glyph unicode="&#xe927;" glyph-name="target" d="M614.4 960c-139.497-0.054-269.385-71.073-344.715-188.482s-85.753-265.077-27.663-391.904c2.543-5.546 7.851-9.313 13.924-9.884s11.991 2.142 15.522 7.117c3.531 4.975 4.14 11.455 1.598 17.001-68.928 150.128-31.635 327.671 91.871 437.378s304.208 125.802 445.16 39.651c140.952-86.152 209.037-254.308 167.727-414.255s-182.307-274.104-347.348-281.227h-0.375c-5.12-0.205-10.428-0.393-15.684-0.393-54.098-0.122-107.575 11.525-156.723 34.133-5.542 2.543-12.020 1.935-16.994-1.593s-7.686-9.442-7.117-15.514c0.569-6.071 4.334-11.378 9.877-13.92 2.918-1.331 5.871-2.492 8.806-3.755l-128.597-154.385c-12.715-15.265-15.451-36.508-7.020-54.497s26.508-29.477 46.375-29.471h81.783c15.173 0.007 29.557 6.761 39.253 18.432l55.808 66.901h149.009l55.774-66.901c9.696-11.671 24.080-18.425 39.253-18.432h81.783c19.867-0.006 37.944 11.482 46.375 29.471s5.695 39.232-7.020 54.497l-128.512 154.351c178.357 76.962 278.125 268.618 238.867 458.862s-206.747 326.749-401 326.819zM457.916-23.723c-3.241-3.891-8.043-6.142-13.107-6.144h-81.783c-6.623-0.004-12.651 3.824-15.463 9.821s-1.9 13.079 2.339 18.168l136.021 163.226c33.222-10.954 67.721-17.568 102.639-19.678l3.567-4.267-134.212-161.126zM568.32 55.467l46.080 55.279 46.080-55.279h-92.16zM878.933-1.877c4.243-5.094 5.152-12.184 2.331-18.184s-8.86-9.823-15.49-9.806h-81.783c-5.064 0.002-9.866 2.253-13.107 6.144l-134.298 161.109 3.55 4.267c34.922 2.166 69.42 8.826 102.639 19.814l136.158-163.345zM362.428 505.276c1.734-9.27 10.655-15.379 19.925-13.645s15.379 10.655 13.645 19.925c-2.349 12.813-3.509 25.817-3.465 38.844 0.047 93.343 58.511 176.673 146.268 208.479s186.035 5.283 245.875-66.355c59.84-71.638 68.442-173.068 21.522-253.761s-139.329-123.388-231.188-106.816c-6.019 1.081-12.156-1.141-16.088-5.824s-5.058-11.112-2.951-16.853c2.106-5.741 7.123-9.916 13.151-10.944 14.952-2.609 30.1-3.922 45.278-3.925 141.385 0 256 114.615 256 256s-114.615 256-256 256c-141.385 0-256-114.615-256-256-0.036-15.133 1.313-30.237 4.028-45.124zM614.4 413.867c-1.946 0-3.908 0-5.717 0.119-6.148 0.581-12.13-2.204-15.642-7.283s-4.008-11.659-1.294-17.206c2.713-5.547 8.211-9.196 14.377-9.541 2.628-0.205 5.461-0.222 8.277-0.222 94.257 0 170.667 76.41 170.667 170.667s-76.41 170.667-170.667 170.667c-94.257 0-170.667-76.41-170.667-170.667 0-2.85 0-5.478 0.222-8.107 0.345-6.166 3.994-11.664 9.541-14.377s12.127-2.218 17.206 1.294c5.079 3.513 7.864 9.495 7.283 15.642-0.119 1.809-0.119 3.601-0.119 5.547 0 75.405 61.128 136.533 136.533 136.533s136.533-61.128 136.533-136.533c0-75.405-61.128-136.533-136.533-136.533zM85.333-63.846c22.64-0.064 44.365 8.933 60.331 24.986l50.603 50.62c0.188 0.171 0.427 0.222 0.614 0.41s0.239 0.427 0.41 0.614l41.643 41.643c0.188 0.171 0.427 0.222 0.614 0.41s0.239 0.427 0.41 0.614l291.84 291.84c0.171 0.171 0.239 0.41 0.41 0.597 1.142 1.258 2.091 2.679 2.816 4.215 0.154 0.324 0.375 0.58 0.512 0.887l0.137 0.239 51.712 134.468c30.079-12.897 65.078-2.633 83.428 24.465s14.887 63.407-8.254 86.549c-23.142 23.142-59.45 26.604-86.549 8.254s-37.362-53.35-24.465-83.428l-134.57-51.644c-1.012-0.515-1.972-1.127-2.867-1.826-0.998-0.532-1.941-1.161-2.816-1.877h-0.119l-386.167-386.372c-24.397-24.405-31.695-61.102-18.49-92.984s44.312-52.673 78.821-52.68zM130.85 139.418l72.414-72.414-18.534-18.534-72.414 72.414 18.534 18.534zM227.396 91.136l-72.414 72.414 268.271 268.237 24.218-24.201-203.537-203.52c-4.437-4.285-6.216-10.63-4.654-16.597s6.222-10.627 12.189-12.189c5.967-1.562 12.312 0.217 16.597 4.654l203.52 203.52 24.064-24.064-268.254-268.254zM490.411 463.479c9.156-15.107 21.834-27.773 36.949-36.915l-14.080-36.591-59.409 59.392 36.54 14.114zM614.4 584.533c14.566 0.069 27.571-9.113 32.381-22.862s0.365-29.036-11.068-38.061c-11.433-9.026-27.333-9.802-39.591-1.933-1.481 5.079-5.441 9.059-10.513 10.564-3.476 5.42-5.329 11.72-5.342 18.159 0 18.851 15.282 34.133 34.133 34.133zM539.904 459.247c-6.459 4.67-12.134 10.339-16.811 16.794l27.307 10.513-10.496-27.307zM49.135 57.685l39.049 39.049 72.414-72.397-39.066-39.066c-20.259-19.336-52.138-19.336-72.397 0-9.604 9.602-14.999 22.626-14.999 36.207s5.395 26.605 14.999 36.207zM433.118 787.49c20.382 15.678 43.063 28.113 67.243 36.864 5.792 1.936 10.112 6.815 11.332 12.799s-0.846 12.165-5.419 16.213c-4.573 4.048-10.958 5.35-16.75 3.414-28.048-9.999-54.324-24.402-77.841-42.667-4.872-3.788-7.319-9.912-6.401-16.014s5.061-11.234 10.832-13.42c5.771-2.186 12.273-1.085 17.004 2.878v-0.068zM354.321 755.098c-39.273-54.927-61.588-120.158-64.188-187.631 0-9.426 7.641-17.067 17.067-17.067s17.067 7.641 17.067 17.067c0 79.138 44.373 148.617 58.027 168.038 5.41 7.72 3.538 18.364-4.181 23.774s-18.364 3.538-23.774-4.181h-0.017z" />
<glyph unicode="&#xe928;" glyph-name="desk" d="M642.85 542.481c-4.139 14.748-17.57 24.952-32.887 24.986h-247.125c-15.424-0.069-28.91-10.413-32.973-25.293l-61.628-238.814c-2.792-10.262-0.641-21.239 5.818-29.688s16.486-13.406 27.121-13.405h370.449c10.614-0.001 20.624 4.935 27.085 13.355s8.637 19.367 5.888 29.619l-61.747 239.241zM301.158 294.4l0.085 0.307 61.594 238.626 247.040 0.307 61.747-239.241h-370.466zM76.8 89.6h34.133v-119.467c0-18.851 15.282-34.133 34.133-34.133h68.267c18.851 0 34.133 15.282 34.133 34.133v119.467h477.867v-119.467c0-18.851 15.282-34.133 34.133-34.133h68.267c18.851 0 34.133 15.282 34.133 34.133v119.467h34.133c28.277 0 51.2 22.923 51.2 51.2v34.133c-0.106 23.49-16.184 43.895-38.997 49.493l-110.729 275.934 174.404 168.96c7.266 7.017 11.051 16.892 10.336 26.968s-5.856 19.318-14.040 25.239l-120.934 87.552 6.093 15.753 9.489 9.489c21.861 22.025 26.117 56.023 10.359 82.756l13.79 13.79c6.664 6.673 6.656 17.485-0.017 24.149s-17.485 6.656-24.149-0.017l-13.79-13.79c-26.734 15.771-60.742 11.522-82.773-10.342l-9.506-9.506-128.99-49.613c-10.795-4.133-18.764-13.45-21.176-24.754s1.062-23.062 9.23-31.241l20.48-20.48c-20.072-27.040-17.302-64.704 6.51-88.517s61.477-26.583 88.517-6.51l16.367-16.35c6.373-6.413 15.040-10.019 24.081-10.018 2.397 0.006 4.788 0.257 7.134 0.751 11.308 2.398 20.634 10.356 24.781 21.146l5.564 14.455 33.075-23.893-85.999-83.422-18.278 45.534c-5.156 12.961-17.71 21.454-31.659 21.419h-288.239v102.4c0 18.851-15.282 34.133-34.133 34.133h-34.133v102.4c0 9.426-7.641 17.067-17.067 17.067s-17.067-7.641-17.067-17.067v-87.706l-53.35 96c-4.581 8.238-14.973 11.203-23.211 6.622s-11.203-14.973-6.622-23.211l58.334-104.977c-5.948-6.286-9.27-14.608-9.284-23.262v-102.4h-15.172c-13.955 0.042-26.517-8.452-31.676-21.419l-170.155-424.021c-22.814-5.598-38.891-26.003-38.997-49.493v-34.133c0-28.277 22.923-51.2 51.2-51.2zM213.333-29.867h-68.267v119.467h68.267v-119.467zM827.733-29.867h-68.267v119.467h68.267v-119.467zM838.656 906.735c6.404-6.402 10.002-15.086 10.002-24.141s-3.598-17.739-10.002-24.141l-48.265 48.282c13.329 13.325 34.935 13.325 48.265 0zM691.2 721.067c-11.884 0.012-22.906 6.203-29.099 16.346s-6.665 22.776-1.246 33.352l45.909-45.909c-4.814-2.48-10.149-3.778-15.565-3.789zM771.874 708.028l-131.874 131.857 122.027 46.933 56.73-56.73-46.882-122.061zM834.56 776.107l113.596-82.176-24.849-24.064-101.41 73.387 12.663 32.853zM870.4 666.010l28.023-20.275-114.671-111.138-13.653 34.133 100.301 97.28zM315.733 772.267h68.267v-102.4h-68.267v102.4zM266.428 635.733h439.945l164.318-409.6h-768.649l164.386 409.6zM59.733 174.933c0 9.426 7.641 17.067 17.067 17.067h819.2c9.426 0 17.067-7.641 17.067-17.067v-34.133c0-9.426-7.641-17.067-17.067-17.067h-819.2c-9.426 0-17.067 7.641-17.067 17.067v34.133zM401.067 465.067h170.667c9.426 0 17.067 7.641 17.067 17.067s-7.641 17.067-17.067 17.067h-170.667c-9.426 0-17.067-7.641-17.067-17.067s7.641-17.067 17.067-17.067zM384 396.8h204.8c9.426 0 17.067 7.641 17.067 17.067s-7.641 17.067-17.067 17.067h-204.8c-9.426 0-17.067-7.641-17.067-17.067s7.641-17.067 17.067-17.067zM366.933 362.667c-9.426 0-17.067-7.641-17.067-17.067s7.641-17.067 17.067-17.067h238.933c9.426 0 17.067 7.641 17.067 17.067s-7.641 17.067-17.067 17.067h-238.933z" />
<glyph unicode="&#xe929;" glyph-name="professor" d="M101.836 68.522c2.286 0 4.59 0.46 6.81 1.434 54.442 23.706 146.38 36.044 273.356 36.694l12.322-24.678c4.232-8.432 14.49-11.878 22.904-7.628 8.43 4.216 11.862 14.456 7.628 22.886l-17.050 34.134c-2.902 5.786-8.806 9.438-15.274 9.438-139.076 0-236.408-12.936-297.524-39.544-8.636-3.772-12.578-13.824-8.824-22.476 2.802-6.42 9.066-10.26 15.652-10.26zM989.866 38.4h-34.134v85.334c0 4.522-1.81 8.874-5 12.066l-102.536 102.52c3.208 6.674 5.138 14.062 5.138 21.948 0 28.228-22.972 51.2-51.2 51.2s-51.2-22.972-51.2-51.2 22.972-51.2 51.2-51.2c7.884 0 15.258 1.928 21.93 5.12l97.536-97.518v-78.27h-887.466c-18.826 0-34.134-15.308-34.134-34.134v-51.2c0-9.42 7.646-17.066 17.066-17.066s17.066 7.646 17.066 17.066v51.2h955.734v-51.2c0-9.42 7.628-17.066 17.066-17.066s17.066 7.646 17.066 17.066v51.2c0.002 18.826-15.324 34.134-34.132 34.134zM802.134 243.2c-9.42 0-17.066 7.662-17.066 17.066s7.646 17.066 17.066 17.066 17.066-7.662 17.066-17.066-7.646-17.066-17.066-17.066zM243.66 449.502c12.442-32.392 53.606-136.84 83.474-181.64l2.696-4.078c21.914-33.228 58.572-88.848 182.17-88.848 123.58 0 160.256 55.62 182.17 88.848l2.696 4.078c29.866 44.8 71.014 149.248 83.474 181.64 22.29 5.546 38.86 25.72 38.86 49.698v68.266c0 22.254-14.268 41.234-34.134 48.282v88.252c0 67.38-35.482 191.846-166.724 203.862-0.256 8.056-2.918 14.54-5.888 19.336-16.776 27.118-63.88 32.802-100.454 32.802-303.684 0-307.2-287.232-307.2-290.134 0-9.42 7.628-17.050 17.032-17.050h0.034c9.404 0 17.032 7.612 17.066 17.032 0.034 10.444 3.874 256.018 273.066 256.018 48.264 0 67.602-10.444 71.424-16.622 0.53-0.87 1.98-3.208-1.366-9.882-2.646-5.29-2.356-11.572 0.75-16.606 3.124-5.018 8.602-8.090 14.524-8.090 151.314 0 153.582-163.72 153.6-170.666v-102.4c0-9.42 7.628-17.066 17.066-17.066 9.42 0 17.066-7.662 17.066-17.066v-68.268c0-9.404-7.646-17.066-17.066-17.066-7.116 0-13.482-4.42-15.992-11.076-0.494-1.348-50.892-135.288-83.542-184.252l-2.798-4.232c-20.446-31.028-48.47-73.506-153.668-73.506-105.216 0-133.222 42.478-153.668 73.506l-2.798 4.232c-32.648 48.964-83.046 182.904-83.558 184.252-2.492 6.656-8.858 11.076-15.974 11.076-9.404 0-17.066 7.662-17.066 17.066v68.266c0 4.626 1.844 8.824 4.846 11.896 6.196-13.91 18.842-26.42 40.090-28.536l58.402-43.794c4.558-33.244 32.838-59.032 67.33-59.032h34.134c37.648 0 68.266 30.618 68.266 68.266 0-37.648 30.618-68.266 68.266-68.266h34.134c34.474 0 62.788 25.788 67.328 59.050l62.378 46.762c7.544 5.65 9.080 16.35 3.414 23.894-5.65 7.544-16.35 9.096-23.894 3.414l-43.502-32.632c-6.502 20.804-25.72 36.044-48.658 36.044h-68.266c-28.228 0-51.2-22.972-51.2-51.2 0 28.228-22.972 51.2-51.2 51.2h-68.266c-22.92 0-42.138-15.24-48.656-36.044l-32.564 24.422c13.432 32.46 25.6 80.47 29.048 114.176 53.794 0.956 209.426 7.526 278.664 50.74 15.702-60.62 66.1-111.634 68.642-114.16 6.672-6.672 17.46-6.672 24.132 0 6.672 6.674 6.672 17.46 0 24.132-0.632 0.632-63.266 63.966-63.266 124.468 0 7.662-5.12 14.404-12.51 16.452-7.356 2.048-15.258-1.092-19.182-7.662-24.85-41.386-186.044-59.99-292.574-59.99-9.42 0-17.066-7.646-17.066-17.066 0-27.7-13.090-83.030-27.016-117.078-5.444 3.276-6.98 9.386-7.116 14.678 0 9.42-7.646 17.066-17.066 17.066-28.228 0-51.2-22.972-51.2-51.2v-68.266c-0.004-23.978 16.568-44.152 38.856-49.698zM546.134 533.334c0 9.404 7.646 17.066 17.066 17.066h68.266c9.42 0 17.066-7.662 17.066-17.066v-17.066c0-18.824-15.308-34.134-34.134-34.134h-34.134c-18.824 0-34.134 15.308-34.134 34.134v17.066zM375.466 533.334c0 9.404 7.662 17.066 17.066 17.066h68.268c9.404 0 17.066-7.662 17.066-17.066v-17.066c0-18.824-15.308-34.134-34.134-34.134h-34.132c-18.824 0-34.134 15.308-34.134 34.134v17.066zM597.316 345.548c0.018 9.404-7.594 17.066-16.998 17.118-0.324 0-30.84 0.342-60.69 15.274-4.796 2.39-10.462 2.39-15.258 0-29.85-14.934-60.382-15.274-60.638-15.274-9.42 0-17.066-7.646-17.066-17.066s7.646-17.066 17.066-17.066c1.45 0 33.69 0.188 68.266 15.308 34.56-15.12 66.816-15.308 68.266-15.308 9.406 0 17.018 7.612 17.052 17.014zM631.416 140.1c-6.382-0.034-12.236-3.618-15.156-9.318l-17.066-33.416c-4.284-8.396-0.938-18.688 7.442-22.972 2.474-1.262 5.138-1.86 7.748-1.86 6.212 0 12.202 3.396 15.224 9.302l12.306 24.132c93.286-0.256 168.414-7.236 223.47-20.754 9.182-2.27 18.398 3.344 20.634 12.492 2.252 9.164-3.328 18.398-12.492 20.65-59.77 14.696-140.836 22.342-242.11 21.744zM494.934 123.734v-34.134c0-9.42 7.646-17.066 17.066-17.066s17.066 7.646 17.066 17.066v34.134c0 9.42-7.646 17.066-17.066 17.066s-17.066-7.646-17.066-17.066zM494.934 311.466c-9.42 0-17.066-7.646-17.066-17.066s7.646-17.066 17.066-17.066h34.134c9.438 0 17.066 7.646 17.066 17.066s-7.628 17.066-17.066 17.066h-34.134z" />
<glyph unicode="&#xe92a;" glyph-name="knowledge" d="M625.277 341.175c92.534 37.581 152.506 128.115 151.019 227.978 0 137.252-118.579 248.913-264.332 248.913s-264.332-111.66-264.332-248.913c-1.487-99.862 58.483-190.396 151.019-227.978l2.049-1.11 13.994-22.962c-24.984-14.461-33.513-46.437-19.054-71.418 1.901-3.284 4.154-6.353 6.721-9.15-19.591-21.477-18.065-54.767 3.41-74.361 9.756-8.899 22.501-13.807 35.705-13.75h140.977c29.070-0.128 52.739 23.336 52.866 52.406 0.057 13.206-4.85 25.951-13.75 35.705 19.514 21.272 18.087 54.336-3.185 73.848-2.798 2.566-5.864 4.82-9.15 6.721l13.994 22.962 2.049 1.11zM582.451 183.668h-140.977c-9.732 0-17.622 7.89-17.622 17.622s7.89 17.622 17.622 17.622h140.977c9.732 0 17.622-7.89 17.622-17.622s-7.89-17.622-17.622-17.622zM582.451 254.157h-140.977c-9.732 0-17.622 7.89-17.622 17.622s7.89 17.622 17.622 17.622h140.977c9.732 0 17.622-7.89 17.622-17.622s-7.89-17.622-17.622-17.622zM609.281 372.597l-7.047-3.828c-2.727-1.487-5.016-3.665-6.635-6.315l-23.043-37.808h-7.727v133.681l82.947 82.947-24.918 24.92-88.111-88.111c-3.304-3.304-5.161-7.785-5.163-12.459v-140.977h-35.244v140.977c-0.002 4.674-1.859 9.155-5.163 12.459l-88.111 88.111-24.918-24.918 82.947-82.947v-133.681h-7.727l-23.043 37.808c-1.619 2.65-3.908 4.828-6.635 6.315l-7.047 3.828c-0.566 0.302-1.145 0.575-1.738 0.817-79.672 32.052-131.366 109.87-130.032 195.736 0 117.813 102.763 213.668 229.088 213.668s229.088-95.856 229.088-213.668c1.335-85.866-50.362-163.683-130.032-195.736-0.593-0.245-1.174-0.518-1.738-0.819zM134.011 784.677l15.761 31.522 105.726-52.863-15.761-31.522-105.726 52.863zM764.224 772.026l112.133 37.401 11.151-33.433-112.133-37.401-11.151 33.433zM71.409 588.977h105.733v-35.244h-105.733v35.244zM846.783 588.977h105.733v-35.244h-105.733v35.244zM134.013 322.807l105.726 52.863 15.761-31.522-105.726-52.863-15.761 31.522zM768.404 344.084l15.761 31.522 105.726-52.863-15.761-31.522-105.726 52.863zM494.34 941.42h35.244v-88.111h-35.244v88.111zM1023.004 113.18v35.244c-229.905 0-474.214-55.576-475.789-158.599h-70.506c-1.575 103.023-245.884 158.599-475.789 158.599v-35.244c258.162 0 438.432-64.792 440.459-123.355h-440.459v-35.244h1022.084v35.244h-440.459c2.027 58.563 182.297 123.355 440.459 123.355zM-0.008 25.072l1.854 35.195 334.88-17.639-1.854-35.195-334.88 17.639zM687.217 42.626l334.88 17.673 1.857-35.195-334.88-17.673-1.857 35.195z" />
<glyph unicode="&#xe92b;" glyph-name="teacher" d="M456 688c-13.255 0-24-10.745-24-24s10.745-24 24-24c13.255 0 24 10.745 24 24v0c-0.015 13.249-10.751 23.985-23.999 24h-0.001zM600 688c-13.255 0-24-10.745-24-24s10.745-24 24-24c13.255 0 24 10.745 24 24v0c-0.015 13.249-10.751 23.985-23.999 24h-0.001zM528 592c-8.832 0.010-15.99 7.168-16 15.999v0.001h-32c0-26.51 21.49-48 48-48s48 21.49 48 48v0h-32c-0.010-8.832-7.168-15.99-15.999-16h-0.001zM986.342 348.2c-2.772 2.358-6.394 3.792-10.35 3.792-0.926 0-1.833-0.079-2.716-0.229l0.095 0.013-144.654-24.11c-10.103-1.71-19.125-5.267-27.096-10.332l0.296 0.176-11.026 27.84c-4.651 11.775-10.846 21.92-18.478 30.795l0.118-0.141 4.174 37.834c1.017 8.649 1.629 18.734 1.688 28.95v0.084c-0.027 37.271-7.858 72.707-21.947 104.77l0.657-1.676c-11.718 26.748-18.537 57.922-18.537 90.688 0 4.049 0.104 8.074 0.31 12.072l-0.023-0.56 2.722 55.382c0.166 3.49 0.338 7.1 0.338 10.682-0.178 118.040-95.861 213.673-213.903 213.77h-0.009c-118.106-0.023-213.842-95.772-213.842-213.882 0-3.722 0.095-7.422 0.283-11.097l-0.021 0.515 2.712-55.2c0.16-4.122 0.308-8.014 0.308-11.866 0-0.12 0-0.263 0-0.406 0-32.563-6.824-63.533-19.119-91.557l0.573 1.465c-13.413-30.418-21.22-65.886-21.22-103.177 0-10.238 0.588-20.339 1.733-30.27l-0.114 1.211 4.162-37.312c-4.622-5.374-8.82-11.374-12.389-17.772l-0.283-0.552-21.842 54.6c-7.136 17.519-24.034 29.643-43.763 29.643-26.027 0-47.126-21.099-47.126-47.126 0-7.69 1.842-14.95 5.109-21.362l-0.124 0.267 3.074-6.122h-31.45c-13.041 0.016-25.35 3.135-36.234 8.657l0.458-0.211-15.944 7.972c-4.586 2.343-10.004 3.716-15.742 3.716-19.44 0-35.2-15.76-35.2-35.2 0 0 0 0 0 0v0-45.156c0-0.048 0-0.105 0-0.163 0-18.64 10.683-34.784 26.261-42.644l0.274-0.125 26.042-13.022c14.596-7.436 31.829-11.801 50.079-11.824h9.345v-47.382l-11.494-149.418c-0.131-1.602-0.205-3.467-0.205-5.35 0-38.577 31.272-69.85 69.849-69.85v0q1.776 0 3.532 0.090c1.020-0.048 2.038-0.088 3.052-0.088 0.003 0 0.006 0 0.010 0 27.636 0 51.207 17.408 60.344 41.857l0.146 0.445 73.038 135.8c4.679-21.324 13.634-40.047 25.969-56.029l-0.241 0.325v-122.4h32v128c0 3.908-1.401 7.488-3.728 10.267l0.020-0.025c-15.682 18.759-25.205 43.138-25.205 69.741 0 33.558 15.152 63.576 38.989 83.587l0.168 0.137-20.488 24.584c-7.332-6.138-13.848-12.785-19.665-20.018l-0.213-0.274c-0.586-0.603-1.129-1.256-1.62-1.949l-0.034-0.051-0.036 0.020-0.284-0.498c-0.072-0.112-0.13-0.236-0.2-0.35-8.533-11.143-15.579-24.022-20.497-37.906l-0.303-0.98-74.904-139.286v194.386l22.736 56.614c4.025 10.054 9.729 18.642 16.844 25.83l-0.006-0.006c14.623 14.851 34.917 24.082 57.368 24.176h53.56l91.452-167.662c2.77-5.005 8.019-8.338 14.046-8.338s11.276 3.333 14.004 8.256l0.042 0.082 33.954 62.248v-214.586c0 0 0 0 0-0.001 0-7.726 5.476-14.173 12.759-15.671l0.103-0.018 67.138-13.428v-66.882h32v60.484l61.216-12.226c0.4-0.070 2.254-0.258 2.784-0.258h30.27l3.072-5.724c9.421-24.886 33.048-42.261 60.736-42.276h0.002c0.097-0.001 0.213-0.001 0.328-0.001 3.61 0 7.146 0.318 10.581 0.926l-0.363-0.053c23.27 4.059 42.025 20.057 49.936 41.33l0.146 0.448 42.552 7.092c14.729 2.486 25.921 14.795 26.663 29.852l0.003 0.074 3.2 0.642c7.391 1.511 12.873 7.96 12.874 15.69v0 272c-0.003 4.88-2.189 9.248-5.635 12.181l-0.023 0.019zM457.142 387.31c13.565 6.121 22.839 19.52 22.858 35.088v48.968c14.349-4.672 30.86-7.366 48-7.366s33.651 2.694 49.133 7.681l-1.133-0.315v-48.966c0.022-15.566 9.294-28.961 22.614-34.984l0.242-0.098-19.256-35.318h-103.2zM528 496c-70.659 0.082-127.918 57.34-128 127.992v71.64c28.685 20.891 51.988 47.397 68.636 78.044l0.612 1.23c51.826-41.766 115.025-71.555 184.218-84.163l2.534-0.383v-66.36c-0.082-70.659-57.34-127.918-127.992-128h-0.008zM744.23 359.55l0.296-0.304c7.059-7.102 12.692-15.632 16.426-25.117l0.174-0.503 6.874-17.354c-8.165 5.558-17.845 9.56-28.284 11.339l-0.43 0.061-125.134 20.856 19.346 35.472h53.382c0.027 0 0.060 0 0.092 0 22.496 0 42.803-9.371 57.232-24.422l0.027-0.028zM753.584 272l-145.6 29.118v16l126.024-21c13.918-2.338 25.271-11.497 30.643-23.856l0.101-0.262zM833.984 296.108l126.016 21.006v-16l-145.584-29.114h-11.168c5.473 12.614 16.819 21.768 30.492 24.075l0.238 0.033zM98.886 280.446l-26.042 13.020c-5.283 2.663-8.844 8.045-8.844 14.259 0 0.019 0 0.038 0 0.056v-0.003 45.156c-0.001 0.022-0.001 0.048-0.001 0.074 0 1.123 0.604 2.106 1.505 2.64l0.014 0.008c0.472 0.313 1.051 0.5 1.674 0.5 0.526 0 1.022-0.133 1.454-0.368l15.93-7.964c14.596-7.436 31.829-11.801 50.079-11.824h57.345c8.836 0 15.999 7.164 15.999 16 0 2.608-0.624 5.071-1.731 7.247l0.042-0.091-14.646 29.296c-1.007 1.971-1.598 4.299-1.598 6.765 0 7.049 4.824 12.972 11.351 14.646l0.105 0.023c1.092 0.281 2.345 0.442 3.636 0.442 6.335 0 11.763-3.881 14.037-9.395l0.037-0.101 20.768-51.914v-76.918h-105.338c-13.041 0.016-25.35 3.135-36.234 8.657l0.458-0.211zM240 240v-32h-64v32zM164.414 40.752l10.402 135.248h65.184v-138.15c-0.032-19.919-15.437-36.23-34.983-37.704l-0.127-0.008c-0.025 0-0.055 0-0.085 0-0.604 0-1.2-0.033-1.787-0.097l0.073 0.006c-0.316 0-0.622-0.048-0.94-0.048-0.001 0-0.003 0-0.004 0-20.901 0-37.844 16.943-37.844 37.844 0 1.023 0.041 2.037 0.12 3.040l-0.008-0.132zM368.256 261.98c0.343 0.46 0.677 0.863 1.029 1.248l-0.011-0.012c-0.328-0.418-0.646-0.842-0.97-1.262zM312.932 400.884l-1.834 16.442c-0.906 7.653-1.422 16.518-1.422 25.504 0 32.723 6.851 63.845 19.198 92.011l-0.576-1.474c13.363 30.269 21.142 65.565 21.142 102.678 0 0.153 0 0.305 0 0.458v-0.024c0 4.47-0.168 8.854-0.34 13.266l-2.72 55.368c-0.143 2.695-0.224 5.85-0.224 9.023 0 100.451 81.431 181.882 181.882 181.882 100.415 0 181.824-81.373 181.882-181.774v-0.006c0-2.82-0.146-5.898-0.3-9.134l-2.718-55.324c-0.208-3.911-0.326-8.49-0.326-13.097 0-37.317 7.766-72.821 21.769-104.983l-0.659 1.698c11.8-26.68 18.683-57.792 18.714-90.509v-0.011c-0.059-9.090-0.604-17.982-1.61-26.733l0.106 1.133-1.818-16.488c-16.103 9.538-35.489 15.184-56.191 15.208h-72.487c-3.515 0.048-6.352 2.885-6.4 6.395v63.131c48.13 28.172 79.954 79.601 80 138.467v80.007c0 0 0 0 0 0.001 0 8.039-5.928 14.693-13.651 15.829l-0.087 0.011c-73.571 10.757-138.632 41.040-191.528 85.364l0.596-0.486-9.086 7.574c-2.754 2.307-6.335 3.709-10.243 3.709-6.228 0-11.625-3.559-14.269-8.754l-0.042-0.091-6.2-12.4c-16.131-31.772-39.332-57.881-67.648-76.987l-0.716-0.455c-4.321-2.91-7.126-7.784-7.126-13.314 0 0 0 0 0 0v0-80c0.046-58.873 31.87-110.302 79.245-138.065l0.755-0.409v-63.126c-0.048-3.515-2.885-6.352-6.395-6.4h-72.645c-20.64-0.067-39.956-5.672-56.559-15.404l0.531 0.288zM528 257.414l-34.138 62.586h68.276zM608 268.482l128-25.6v-191.364l-128 25.6zM768 240h32v-192h-32zM851.136 0.4c-1.436-0.255-3.089-0.401-4.776-0.401-0.098 0-0.197 0-0.295 0.001h0.015c-11.948 0.012-22.398 6.414-28.117 15.973l-0.083 0.149c0.302 0.034 0.6 0.084 0.898 0.136 0.118 0.022 0.236 0.030 0.354 0.052h0.026l33 6.6c3.61-6.378 9.188-11.284 15.899-13.955l0.213-0.075c-4.599-4.295-10.443-7.311-16.934-8.451l-0.2-0.029zM944 49.308v0l-64-10.668v59.47c0 0.003 0 0.006 0 0.010 0 2.384 1.732 4.363 4.006 4.748l0.028 0.004 54.346 9.058c0.245 0.043 0.529 0.068 0.818 0.070h0.002c2.655-0.018 4.8-2.175 4.8-4.832 0 0 0 0 0 0v0l0.012-57.856zM933.116 143.494l-54.344-9.056c-17.561-2.959-30.772-18.052-30.772-36.23 0-0.034 0-0.069 0-0.103v0.005-43.4l-16-3.2v191.372l128 25.6v-130.958c-5.82 4.052-13.038 6.474-20.822 6.474-2.141 0-4.238-0.183-6.279-0.535l0.218 0.031z" />
<glyph unicode="&#xe92c;" glyph-name="student" d="M573.38 286.344l14.18-28.688c-22.042-11.104-48.036-17.621-75.548-17.656h-0.012c-0.075 0-0.164 0-0.252 0-25.517 0-49.716 5.644-71.416 15.752l1.042-0.436 13.252 29.126c16.783-7.857 36.443-12.442 57.174-12.442 0.070 0 0.14 0 0.21 0h-0.011c22.359 0.028 43.475 5.322 62.182 14.709l-0.802-0.365zM512 511.884c21.669 0.101 41.636 7.303 57.714 19.397l-0.248-0.179-18.932 25.8c-10.591-8.043-23.997-12.885-38.534-12.885s-27.943 4.842-38.693 13.001l0.159-0.116-18.932-25.8c15.83-11.915 35.797-19.117 57.442-19.218h0.024zM432 592c17.673 0 32 14.327 32 32s-14.327 32-32 32c-17.673 0-32-14.327-32-32v0c0.022-17.664 14.336-31.978 31.998-32h0.002zM592 592c17.673 0 32 14.327 32 32s-14.327 32-32 32c-17.673 0-32-14.327-32-32v0c0.022-17.664 14.336-31.978 31.998-32h0.002zM972.4 174.328c12.307-20.055 19.596-44.34 19.596-70.328 0-75.109-60.887-135.998-135.995-136h-688c-75.111 0-136 60.889-136 136 0 30.77 10.219 59.154 27.448 81.942l-0.248-0.342 92.88 123.84 25.6-19.2-92.88-123.84c-12.986-17.165-20.8-38.87-20.8-62.4 0-57.438 46.562-104 104-104v0h72v96h-64c-0.001 0-0.003 0-0.004 0-8.837 0-16 7.163-16 16 0 3.798 1.323 7.287 3.534 10.031l-0.024-0.031 124.494 155.614v105.222c-30.233-4.547-56.065-20.547-73.397-43.358l-0.203-0.278-20.638-27.52-25.6 19.2 20.638 27.52c23.747 31.255 59.365 52.429 100.016 56.781l0.636 0.055c6.025 30.225 28.414 54.002 57.354 61.943l0.562 0.131c-11.736 19.164-20.366 41.591-24.523 65.553l-0.163 1.137h-2.682c-35.346 0-64 28.654-64 64s28.654 64 64 64v0 16h-16c-8.837 0-16 7.163-16 16v0 48c0 0.040 0 0.087 0 0.134 0 53.928 24.294 102.181 62.536 134.413l0.265 0.217 20.6-24.492c-7.396-6.257-13.98-13.027-19.861-20.383l-0.223-0.289c43.336 8.979 81.299 21.050 117.465 36.513l-3.981-1.513c0.409 0.19 0.931 0.393 1.466 0.569l0.11 0.031 5.024-15.5 6.364-14.344c-0.72-0.32-70.248-30.874-147.46-41.8-3.559-8.585-6.468-18.642-8.248-29.083l-0.12-0.849c4.104 0.358 8.184 0.756 12.2 1.226 13.8 1.576 27.698 3.858 41.362 6.79 38.339 8.337 72.17 20.453 103.805 36.302l-2.517-1.142c14.369 6.974 26.529 14.12 38.073 22.094l-0.953-0.622 18.894-25.842c-2.35-1.722-58.636-42.388-150.584-62.074-14.668-3.148-29.6-5.6-44.4-7.292-5.844-0.682-11.8-1.246-17.816-1.706v-23.358h44.624c0.105 0 0.228 0 0.352 0 72.368 0 139.801 21.127 196.468 57.549l-1.445-0.869v84.552c-8.010 20.506-27.611 34.768-50.543 34.768-0.020 0-0.040 0-0.060 0h-45.397c-0.024 0-0.051 0-0.079 0-26.475 0-51.279-7.15-72.589-19.624l0.68 0.368-16.024 27.7c25.229 14.81 55.565 23.556 87.944 23.556 0.024 0 0.048 0 0.071 0h45.396c0.022 0 0.047 0 0.073 0 33.669 0 62.822-19.333 76.964-47.504l0.225-0.496h5.338c61.827-0.072 111.928-50.173 112-111.993v-96.007c35.346 0 64-28.654 64-64s-28.654-64-64-64v0h-2.682c-4.322-25.106-12.955-47.539-25.172-67.546l0.476 0.838c29.468-8.113 51.831-31.86 57.817-61.538l0.087-0.514c41.296-4.402 76.923-25.579 100.414-56.483l0.26-0.357 118.8-158.4-25.6-19.2-118.8 158.4c-17.535 23.089-43.367 39.089-72.978 43.559l-0.622 0.077v-105.222l124.494-155.614c2.187-2.713 3.51-6.202 3.51-10 0-8.837-7.163-16-16-16-0.001 0-0.003 0-0.004 0h-64v-96h72c0.001 0 0.001 0 0.002 0 57.438 0 104 46.562 104 104 0 19.874-5.574 38.445-15.245 54.237l0.259-0.455zM704 576c17.673 0 32 14.327 32 32s-14.327 32-32 32v0zM320 640c-17.673 0-32-14.327-32-32s14.327-32 32-32v0zM656 448h-1.024c-9.251-10.295-19.396-19.45-30.42-27.469l-0.556-0.385v-4.146h77.248c-6.807 18.786-24.484 31.972-45.245 32h-0.003zM640 384v-256h64v256zM592 771.148c16.462-38.395 44.236-69.321 79.091-89.292l0.909-0.48v33.678c-29.71 42.476-72.446 71.346-72.886 71.642l17.762 26.616c20.617-14.51 38.66-30.232 54.945-47.621l0.179-0.193v2.502c-0.051 44.162-35.838 79.949-79.995 80h-0.005zM352 679.894c6.229 2.907 11.27 5.618 16.154 8.565l-0.774-0.433c-0.92 0-1.838-0.026-2.756-0.026h-12.624zM352 576c0-88.366 71.634-160 160-160s160 71.634 160 160v0 69.472c-44.779 21.042-80.38 55.429-102.393 97.982l-0.573 1.218c-41.418-25.347-90.019-43.641-141.98-51.813l-2.234-0.289c-19.234-19.397-42.29-34.97-67.947-45.503l-1.369-0.497-3.504-1.4zM512 384c-0.060 0-0.132 0-0.204 0-28.931 0-56.358 6.437-80.927 17.957l1.169-0.492c7.775-37.598 40.615-65.458 79.963-65.458s72.188 27.86 79.871 64.93l0.092 0.528c-23.399-11.027-50.825-17.464-79.754-17.464-0.074 0-0.148 0-0.222 0h0.011zM320 128h64v256h-64zM288 173.8v52.588l-78.71-98.388h35.176l2.236 6.704c6.495 19.090 21.764 33.633 40.874 38.994l0.424 0.102zM400 80c-0.010 8.832-7.168 15.99-15.999 16h-80.001c-8.837 0-16 7.163-16 16v0 27.074c-5.071-3.49-8.898-8.465-10.881-14.292l-0.059-0.2-5.060-15.182v-109.4h112c8.832 0.010 15.99 7.168 16 15.999v0.001zM400 420.146c-11.58 8.404-21.725 17.559-30.819 27.676l-0.157 0.178h-1.024c-20.779-0.005-38.476-13.199-45.174-31.666l-0.106-0.334h77.28zM608 356.946c-20.426-32.016-55.76-52.942-95.982-52.942-40.246 0-75.598 20.951-95.745 52.542l-0.273 0.458v-241.266c9.838-8.808 16-21.547 16-35.726 0-0.004 0-0.008 0-0.013v0.001-64c0-0.006 0-0.012 0-0.019 0-5.729-1.008-11.223-2.858-16.314l0.106 0.332h165.504c-1.744 4.758-2.752 10.252-2.752 15.981 0 0.007 0 0.013 0 0.020v-0.001 64c0 0.004 0 0.008 0 0.012 0 14.179 6.162 26.918 15.954 35.686l0.046 0.040zM752 109.4l-5.060 15.178c-2.042 6.027-5.869 11.002-10.845 14.43l-0.095 0.062v-27.070c0-8.837-7.163-16-16-16v0h-80c-8.832-0.010-15.99-7.168-16-15.999v-64.001c0.010-8.832 7.168-15.99 15.999-16h112.001zM779.534 128h35.176l-78.71 98.388v-52.588c19.536-5.465 34.806-20.012 41.172-38.682l0.126-0.424z" />
<glyph unicode="&#xe92d;" glyph-name="address" d="M409 40.789v-103.711l-25.078 20.258c-3.875 3.133-96.070 77.984-189.563 185.32-128.969 148.070-194.359 280.984-194.359 395.039v11.305c0 225.523 183.477 409 409 409s409-183.477 409-409v-11.305c0-9.578-0.508-19.305-1.43-29.148l-79.984 72.969c-16.383 166.313-157.039 296.68-327.586 296.68-181.516 0-329.195-147.68-329.195-329.195v-11.305c0-192.734 248.328-426.055 329.195-496.906zM654.398 98.109h119.703v119.703h-119.703zM409 718.586c93.508 0 169.586-76.078 169.586-169.586s-76.078-169.586-169.586-169.586-169.586 76.078-169.586 169.586 76.078 169.586 169.586 169.586zM409 638.781c-49.508 0-89.781-40.273-89.781-89.781 0-49.5 40.273-89.781 89.781-89.781 49.5 0 89.781 40.281 89.781 89.781 0 49.508-40.281 89.781-89.781 89.781zM970.219 152.336l-22.438 20.469v-128.117c0-59.656-48.539-108.188-108.195-108.188h-252.664c-59.656 0-108.195 48.531-108.195 108.188v128.117l-22.438-20.469-53.781 58.953 310.742 283.492 310.75-283.492zM867.977 245.609l-154.727 141.148-154.719-141.148v-200.914c0-15.656 12.734-28.391 28.391-28.391h252.664c15.656 0 28.391 12.734 28.391 28.391z" />
<glyph unicode="&#xe92e;" glyph-name="play" d="M946.685 492.645l-819.197 460.799c-15.872 8.909-35.225 8.704-50.893-0.41-15.77-9.216-25.395-26.010-25.395-44.237v-921.597c0-18.227 9.626-35.021 25.395-44.237 7.987-4.608 16.896-6.963 25.805-6.963 8.602 0 17.306 2.15 25.088 6.554l819.197 460.799c16.077 9.114 26.112 26.112 26.112 44.646s-10.035 35.533-26.112 44.646z" />
</font>
</defs>
</svg>
